  0
SECTION
  2
HEADER
  9
$ACADVER
  1
AC1009
  9
$INSBASE
 10
-146.27124
 20
-153.796096
 30
0.0
  9
$EXTMIN
 10
489.224548
 20
-131.701458
 30
0.0
  9
$EXTMAX
 10
610.934664
 20
-60.645169
 30
0.0
  9
$LIMMIN
 10
-407.970438
 20
-367.832444
  9
$LIMMAX
 10
429.804077
 20
234.370848
  9
$ORTHOMODE
 70
     0
  9
$REGENMODE
 70
     1
  9
$FILLMODE
 70
     1
  9
$QTEXTMODE
 70
     0
  9
$MIRRTEXT
 70
     1
  9
$DRAGMODE
 70
     2
  9
$LTSCALE
 40
10.0
  9
$OSMODE
 70
    37
  9
$ATTMODE
 70
     1
  9
$TEXTSIZE
 40
6.0
  9
$TRACEWID
 40
1.0
  9
$TEXTSTYLE
  7
ROMANS
  9
$CLAYER
  8
ALPHA_FIN
  9
$CELTYPE
  6
BYLAYER
  9
$CECOLOR
 62
   256
  9
$DIMSCALE
 40
1.0
  9
$DIMASZ
 40
3.0
  9
$DIMEXO
 40
1.0
  9
$DIMDLI
 40
0.1
  9
$DIMRND
 40
0.0
  9
$DIMDLE
 40
0.0
  9
$DIMEXE
 40
0.5
  9
$DIMTP
 40
0.0
  9
$DIMTM
 40
0.0
  9
$DIMTXT
 40
3.0
  9
$DIMCEN
 40
0.0
  9
$DIMTSZ
 40
0.0
  9
$DIMTOL
 70
     0
  9
$DIMLIM
 70
     0
  9
$DIMTIH
 70
     0
  9
$DIMTOH
 70
     1
  9
$DIMSE1
 70
     0
  9
$DIMSE2
 70
     0
  9
$DIMTAD
 70
     1
  9
$DIMZIN
 70
    12
  9
$DIMBLK
  1
OPEN30
  9
$DIMASO
 70
     1
  9
$DIMSHO
 70
     1
  9
$DIMPOST
  1

  9
$DIMAPOST
  1

  9
$DIMALT
 70
     0
  9
$DIMALTD
 70
     2
  9
$DIMALTF
 40
25.4
  9
$DIMLFAC
 40
1.0
  9
$DIMTOFL
 70
     0
  9
$DIMTVP
 40
0.0
  9
$DIMTIX
 70
     0
  9
$DIMSOXD
 70
     0
  9
$DIMSAH
 70
     0
  9
$DIMBLK1
  1

  9
$DIMBLK2
  1

  9
$DIMSTYLE
  2
SC_DEFAUT
  9
$DIMCLRD
 70
     0
  9
$DIMCLRE
 70
     0
  9
$DIMCLRT
 70
     0
  9
$DIMTFAC
 40
1.0
  9
$DIMGAP
 40
0.6
  9
$LUNITS
 70
     2
  9
$LUPREC
 70
     1
  9
$SKETCHINC
 40
0.1
  9
$FILLETRAD
 40
0.0
  9
$AUNITS
 70
     0
  9
$AUPREC
 70
     0
  9
$MENU
  1
acad
  9
$ELEVATION
 40
0.0
  9
$PELEVATION
 40
0.0
  9
$THICKNESS
 40
0.0
  9
$LIMCHECK
 70
     0
  9
$BLIPMODE
 70
     0
  9
$CHAMFERA
 40
0.0
  9
$CHAMFERB
 40
0.0
  9
$SKPOLY
 70
     0
  9
$TDCREATE
 40
2450365.355314
  9
$TDUPDATE
 40
2452608.654615
  9
$TDINDWG
 40
0.560602
  9
$TDUSRTIMER
 40
0.560602
  9
$USRTIMER
 70
     1
  9
$ANGBASE
 50
0.0
  9
$ANGDIR
 70
     0
  9
$PDMODE
 70
    32
  9
$PDSIZE
 40
0.0
  9
$PLINEWID
 40
0.0
  9
$COORDS
 70
     2
  9
$SPLFRAME
 70
     0
  9
$SPLINETYPE
 70
     6
  9
$SPLINESEGS
 70
     8
  9
$ATTDIA
 70
     0
  9
$ATTREQ
 70
     1
  9
$HANDLING
 70
     1
  9
$HANDSEED
  5
3C41
  9
$SURFTAB1
 70
     6
  9
$SURFTAB2
 70
     6
  9
$SURFTYPE
 70
     6
  9
$SURFU
 70
     6
  9
$SURFV
 70
     6
  9
$UCSNAME
  2

  9
$UCSORG
 10
0.0
 20
0.0
 30
0.0
  9
$UCSXDIR
 10
1.0
 20
0.0
 30
0.0
  9
$UCSYDIR
 10
0.0
 20
1.0
 30
0.0
  9
$PUCSNAME
  2

  9
$PUCSORG
 10
0.0
 20
0.0
 30
0.0
  9
$PUCSXDIR
 10
1.0
 20
0.0
 30
0.0
  9
$PUCSYDIR
 10
0.0
 20
1.0
 30
0.0
  9
$USERI1
 70
     0
  9
$USERI2
 70
     0
  9
$USERI3
 70
     0
  9
$USERI4
 70
     0
  9
$USERI5
 70
     0
  9
$USERR1
 40
0.0
  9
$USERR2
 40
0.0
  9
$USERR3
 40
0.0
  9
$USERR4
 40
0.0
  9
$USERR5
 40
0.0
  9
$WORLDVIEW
 70
     1
  9
$SHADEDGE
 70
     3
  9
$SHADEDIF
 70
    70
  9
$TILEMODE
 70
     1
  9
$MAXACTVP
 70
    16
  9
$PLIMCHECK
 70
     0
  9
$PEXTMIN
 10
1.000000E+020
 20
1.000000E+020
 30
1.000000E+020
  9
$PEXTMAX
 10
-1.000000E+020
 20
-1.000000E+020
 30
-1.000000E+020
  9
$PLIMMIN
 10
0.0
 20
0.0
  9
$PLIMMAX
 10
12.0
 20
9.0
  9
$UNITMODE
 70
     0
  9
$VISRETAIN
 70
     0
  9
$PLINEGEN
 70
     0
  9
$PSLTSCALE
 70
     0
  0
ENDSEC
  0
SECTION
  2
TABLES
  0
TABLE
  2
VPORT
 70
     2
  0
VPORT
  2
*ACTIVE
 70
     0
 10
0.0
 20
0.0
 11
1.0
 21
1.0
 12
550.064371
 22
-96.181199
 13
0.0
 23
0.0
 14
1.0
 24
1.0
 15
10.0
 25
10.0
 16
0.0
 26
0.0
 36
1.0
 17
0.0
 27
0.0
 37
0.0
 40
75.036425
 41
1.63142
 42
50.0
 43
0.0
 44
0.0
 50
0.0
 51
0.0
 71
     0
 72
   100
 73
     1
 74
     0
 75
     0
 76
     0
 77
     0
 78
     0
  0
ENDTAB
  0
TABLE
  2
LTYPE
 70
    24
  0
LTYPE
  2
CONTINUOUS
 70
     0
  3
Solid line
 72
    65
 73
     0
 40
0.0
  0
LTYPE
  2
AXES2
 70
     0
  3
___ _ ___ _ ___ _ ___ _ ___ _ ___ _ ___ _ ___ _
 72
    65
 73
     4
 40
1.125
 49
0.75
 49
-0.125
 49
0.125
 49
-0.125
  0
LTYPE
  2
ACAD_ISO04W100
 70
     0
  3
ISO Lang gestrichelt punktiert ____ . ____ . __
 72
    65
 73
     4
 40
30.5
 49
24.0
 49
-3.0
 49
0.5
 49
-3.0
  0
LTYPE
  2
AXES
 70
     0
  3
____ _ ____ _ ____ _ ____ _ ____ _ ____ _ ____ 
 72
    65
 73
     4
 40
2.0
 49
1.25
 49
-0.25
 49
0.25
 49
-0.25
  0
LTYPE
  2
AXESX2
 70
     0
  3
________  __  ________  __  ________  __  _____
 72
    65
 73
     4
 40
4.0
 49
2.5
 49
-0.5
 49
0.5
 49
-0.5
  0
LTYPE
  2
TIRETPT
 70
     0
  3
__ . __ . __ . __ . __ . __ . __ . __ . __ . __
 72
    65
 73
     4
 40
1.0
 49
0.5
 49
-0.25
 49
0.0
 49
-0.25
  0
LTYPE
  2
TIRETPT2
 70
     0
  3
_._._._._._._._._._._._._._._._._._._._._._._._
 72
    65
 73
     4
 40
0.5
 49
0.25
 49
-0.125
 49
0.0
 49
-0.125
  0
LTYPE
  2
TIRETPTX2
 70
     0
  3
____  .  ____  .  ____  .  ____  .  ____  .  __
 72
    65
 73
     4
 40
2.0
 49
1.0
 49
-0.5
 49
0.0
 49
-0.5
  0
LTYPE
  2
DISCONTINU
 70
     0
  3
__ __ __ __ __ __ __ __ __ __ __ __ __ __ __ __
 72
    65
 73
     2
 40
0.75
 49
0.5
 49
-0.25
  0
LTYPE
  2
DISCONTINU2
 70
     0
  3
_ _ _ _ _ _ _ _ _ _ _ _ _ _ _ _ _ _ _ _ _ _ _ _
 72
    65
 73
     2
 40
0.375
 49
0.25
 49
-0.125
  0
LTYPE
  2
DISCONTINUX2
 70
     0
  3
____  ____  ____  ____  ____  ____  ____  ____ 
 72
    65
 73
     2
 40
1.5
 49
1.0
 49
-0.5
  0
LTYPE
  2
DIVISE
 70
     0
  3
____ . . ____ . . ____ . . ____ . . ____ . . __
 72
    65
 73
     6
 40
1.25
 49
0.5
 49
-0.25
 49
0.0
 49
-0.25
 49
0.0
 49
-0.25
  0
LTYPE
  2
DIVISE2
 70
     0
  3
__..__..__..__..__..__..__..__..__..__..__..__.
 72
    65
 73
     6
 40
0.625
 49
0.25
 49
-0.125
 49
0.0
 49
-0.125
 49
0.0
 49
-0.125
  0
LTYPE
  2
DIVISEX2
 70
     0
  3
________  .  .  ________  .  .  ________  .  . 
 72
    65
 73
     6
 40
2.5
 49
1.0
 49
-0.5
 49
0.0
 49
-0.5
 49
0.0
 49
-0.5
  0
LTYPE
  2
POINTILLE
 70
     0
  3
. . . . . . . . . . . . . . . . . . . . . . . .
 72
    65
 73
     2
 40
0.25
 49
0.0
 49
-0.25
  0
LTYPE
  2
POINTILLE2
 70
     0
  3
...............................................
 72
    65
 73
     2
 40
0.125
 49
0.0
 49
-0.125
  0
LTYPE
  2
POINTILLEX2
 70
     0
  3
.  .  .  .  .  .  .  .  .  .  .  .  .  .  .  . 
 72
    65
 73
     2
 40
0.5
 49
0.0
 49
-0.5
  0
LTYPE
  2
CACHE
 70
     0
  3
__ __ __ __ __ __ __ __ __ __ __ __ __ __ __ __
 72
    65
 73
     2
 40
0.375
 49
0.25
 49
-0.125
  0
LTYPE
  2
CACHE2
 70
     0
  3
_ _ _ _ _ _ _ _ _ _ _ _ _ _ _ _ _ _ _ _ _ _ _ _
 72
    65
 73
     2
 40
0.1875
 49
0.125
 49
-0.0625
  0
LTYPE
  2
CACHEX2
 70
     0
  3
____ ____ ____ ____ ____ ____ ____ ____ ____ __
 72
    65
 73
     2
 40
0.75
 49
0.5
 49
-0.25
  0
LTYPE
  2
FANTOME
 70
     0
  3
______  __  __  ______  __  __  ______  __  __ 
 72
    65
 73
     6
 40
2.5
 49
1.25
 49
-0.25
 49
0.25
 49
-0.25
 49
0.25
 49
-0.25
  0
LTYPE
  2
FANTOME2
 70
     0
  3
___ _ _ ___ _ _ ___ _ _ ___ _ _ ___ _ _ ___ _ _
 72
    65
 73
     6
 40
1.25
 49
0.625
 49
-0.125
 49
0.125
 49
-0.125
 49
0.125
 49
-0.125
  0
LTYPE
  2
FANTOMEX2
 70
     0
  3
____________    ____    ____    ____________   
 72
    65
 73
     6
 40
5.0
 49
2.5
 49
-0.5
 49
0.5
 49
-0.5
 49
0.5
 49
-0.5
  0
LTYPE
  2
0
 70
     0
  3
MEDUSA PEN 0
 72
    65
 73
     0
 40
0.0
  0
ENDTAB
  0
TABLE
  2
LAYER
 70
    17
  0
LAYER
  2
0
 70
     0
 62
     7
  6
CONTINUOUS
  0
LAYER
  2
TEXTE_MOYEN
 70
     0
 62
   131
  6
CONTINUOUS
  0
LAYER
  2
ALPHA
 70
     0
 62
   254
  6
CONTINUOUS
  0
LAYER
  2
COTATION1
 70
     0
 62
    50
  6
CONTINUOUS
  0
LAYER
  2
AXE
 70
     0
 62
    80
  6
AXES2
  0
LAYER
  2
DEFPOINTS
 70
     0
 62
     7
  6
CONTINUOUS
  0
LAYER
  2
HACHURES1
 70
     0
 62
   130
  6
CONTINUOUS
  0
LAYER
  2
FMULT
 70
     0
 62
   210
  6
CONTINUOUS
  0
LAYER
  2
FDP_CARTOUCHE
 70
     0
 62
   136
  6
CONTINUOUS
  0
LAYER
  2
FDP_TEXTES
 70
     0
 62
   171
  6
CONTINUOUS
  0
LAYER
  2
FDP_LOGO_MG
 70
     0
 62
    30
  6
CONTINUOUS
  0
LAYER
  2
FDP_LOGO_SCH
 70
     0
 62
    90
  6
CONTINUOUS
  0
LAYER
  2
FDP_FDP
 70
     0
 62
   170
  6
CONTINUOUS
  0
LAYER
  2
POINTILLE_COURT2
 70
     0
 62
    41
  6
CACHE2
  0
LAYER
  2
POINTILLE_MOYEN2
 70
     0
 62
   141
  6
CACHE
  0
LAYER
  2
POINTILLE_LONG2
 70
     0
 62
   241
  6
CACHEX2
  0
LAYER
  2
ALPHA_FIN
 70
     0
 62
   255
  6
CONTINUOUS
  0
ENDTAB
  0
TABLE
  2
STYLE
 70
     4
  0
STYLE
  2
ROMANS
 70
     0
 40
0.0
 41
1.0
 50
0.0
 71
     0
 42
6.0
  3
romans
  4

  0
STYLE
  2
STANDARD
 70
     0
 40
0.2
 41
1.0
 50
0.0
 71
     0
 42
0.2
  3
txt
  4

  0
STYLE
  2
CARTOUCHE
 70
     0
 40
0.0
 41
1.0
 50
0.0
 71
     0
 42
0.2
  3
ROMANS.SHX
  4

  0
STYLE
  2
STD
 70
     0
 40
0.0
 41
1.0
 50
0.0
 71
     0
 42
0.0
  3
txt
  4

  0
ENDTAB
  0
TABLE
  2
VIEW
 70
     0
  0
ENDTAB
  0
TABLE
  2
UCS
 70
     0
  0
ENDTAB
  0
TABLE
  2
APPID
 70
     3
  0
APPID
  2
ACAD
 70
     0
  0
APPID
  2
AVE_RENDER
 70
     0
  0
APPID
  2
AVE_MATERIAL
 70
     0
  0
ENDTAB
  0
TABLE
  2
DIMSTYLE
 70
     3
  0
DIMSTYLE
  2
SC_DEFAUT
 70
     0
  3

  4

  5
OPEN30
  6

  7

 40
1.0
 41
3.0
 42
1.0
 43
0.1
 44
0.5
 45
0.0
 46
0.0
 47
0.0
 48
0.0
140
3.0
141
0.0
142
0.0
143
25.4
144
1.0
145
0.0
146
1.0
147
0.6
 71
     0
 72
     0
 73
     0
 74
     1
 75
     0
 76
     0
 77
     1
 78
    12
170
     0
171
     2
172
     0
173
     0
174
     0
175
     0
176
     0
177
     0
178
     0
  0
DIMSTYLE
  2
STANDARD
 70
     0
  3

  4

  5

  6

  7

 40
1.0
 41
0.18
 42
0.0625
 43
0.38
 44
0.18
 45
0.0
 46
0.0
 47
0.0
 48
0.0
140
0.18
141
0.09
142
0.0
143
25.4
144
1.0
145
0.0
146
1.0
147
0.09
 71
     0
 72
     0
 73
     1
 74
     1
 75
     0
 76
     0
 77
     0
 78
     0
170
     0
171
     2
172
     0
173
     0
174
     0
175
     0
176
     0
177
     0
178
     0
  0
DIMSTYLE
  2
SC_DEFAUT-2
 70
     0
  3

  4

  5
OPEN30
  6

  7

 40
1.0
 41
3.0
 42
1.0
 43
0.1
 44
0.5
 45
0.0
 46
0.0
 47
0.0
 48
0.0
140
3.0
141
0.0
142
0.0
143
25.4
144
1.0
145
0.0
146
1.0
147
0.6
 71
     0
 72
     0
 73
     0
 74
     0
 75
     0
 76
     0
 77
     1
 78
    12
170
     0
171
     2
172
     0
173
     0
174
     0
175
     0
176
     0
177
     0
178
     0
  0
ENDTAB
  0
ENDSEC
  0
SECTION
  2
BLOCKS
  0
BLOCK
  8
0
  2
$MODEL_SPACE
 70
     0
 10
0.0
 20
0.0
 30
0.0
  3
$MODEL_SPACE
  1

  0
ENDBLK
  5
3C36
  8
0
  0
BLOCK
 67
     1
  8
0
  2
$PAPER_SPACE
 70
     0
 10
0.0
 20
0.0
 30
0.0
  3
$PAPER_SPACE
  1

  0
ENDBLK
  5
3C34
 67
     1
  8
0
  0
BLOCK
  8
0
  2
COTE
 70
     0
 10
0.0
 20
0.0
 30
0.0
  3
COTE
  1

  0
ENDBLK
  5
35
  8
0
  0
BLOCK
  8
0
  2
FOND
 70
     0
 10
0.0
 20
0.0
 30
0.0
  3
FOND
  1

  0
ENDBLK
  5
39
  8
0
  0
BLOCK
  8
0
  2
SCH_ISO
 70
     0
 10
0.0
 20
0.0
 30
0.0
  3
SCH_ISO
  1

  0
ENDBLK
  5
24AD
  8
0
  0
BLOCK
  8
0
  2
_OPEN30
 70
     0
 10
0.0
 20
0.0
 30
0.0
  3
_OPEN30
  1

  0
LINE
  5
27E1
  8
COTATION1
 62
     0
 10
-1.0
 20
0.267949
 30
0.0
 11
0.0
 21
0.0
 31
0.0
1001
ACAD
1000
RTLwPs
1070
   158
  0
LINE
  5
27E2
  8
COTATION1
 62
     0
 10
0.0
 20
0.0
 30
0.0
 11
-1.0
 21
-0.267949
 31
0.0
1001
ACAD
1000
RTLwPs
1070
   158
  0
LINE
  5
27E3
  8
COTATION1
 62
     0
 10
0.0
 20
0.0
 30
0.0
 11
-1.0
 21
0.0
 31
0.0
1001
ACAD
1000
RTLwPs
1070
   158
  0
ENDBLK
  5
27E5
  8
0
  0
BLOCK
  8
0
  2
*D4
 70
     1
 10
0.0
 20
0.0
 30
0.0
  3
*D4
  1

  0
LINE
  5
3A9D
  8
COTATION1
 62
     0
 10
504.224548
 20
-96.932669
 30
0.0
 11
504.224548
 21
-73.745169
 31
0.0
1001
ACAD
1000
RTLwPs
1070
   158
  0
LINE
  5
3A9E
  8
COTATION1
 62
     0
 10
584.224548
 20
-95.432669
 30
0.0
 11
584.224548
 21
-73.745169
 31
0.0
1001
ACAD
1000
RTLwPs
1070
   158
  0
LINE
  5
3A9F
  8
COTATION1
 62
     0
 10
507.224548
 20
-74.245169
 30
0.0
 11
581.224548
 21
-74.245169
 31
0.0
1001
ACAD
1000
RTLwPs
1070
   158
  0
INSERT
  5
3AA0
  8
COTATION1
 62
     0
  2
_OPEN30
 10
504.224548
 20
-74.245169
 30
0.0
 41
3.0
 42
3.0
 43
3.0
 50
180.0
1001
ACAD
1000
RTLwPs
1070
   158
  0
INSERT
  5
3AA1
  8
COTATION1
 62
     0
  2
_OPEN30
 10
584.224548
 20
-74.245169
 30
0.0
 41
3.0
 42
3.0
 43
3.0
1001
ACAD
1000
RTLwPs
1070
   158
  0
TEXT
  5
3AA2
  8
COTATION1
 62
     0
 10
541.367405
 20
-73.645169
 30
0.0
 40
3.0
  1
80
1001
ACAD
1000
MTEXTBEGIN
1070
    73
1070
     1
1070
    44
1040
1.0
1070
    74
1070
     0
1000
MTEXTEND
1000
MTEXTBEGIN
1070
    73
1070
     1
1070
    44
1040
1.0
1070
    74
1070
     0
1000
MTEXTEND
  0
POINT
  5
3AA3
  8
DEFPOINTS
 62
     0
 10
504.224548
 20
-97.932669
 30
0.0
  0
POINT
  5
3AA4
  8
DEFPOINTS
 62
     0
 10
584.224548
 20
-96.432669
 30
0.0
  0
POINT
  5
3AA5
  8
DEFPOINTS
 62
     0
 10
584.224548
 20
-74.245169
 30
0.0
  0
ENDBLK
  5
30BE
  8
0
  0
BLOCK
  8
0
  2
*D5
 70
     1
 10
0.0
 20
0.0
 30
0.0
  3
*D5
  1

  0
LINE
  5
37AA
  8
COTATION1
 62
     0
 10
505.924548
 20
-95.432669
 30
0.0
 11
505.924548
 21
-83.745169
 31
0.0
1001
ACAD
1000
RTLwPs
1070
   158
  0
LINE
  5
37AB
  8
COTATION1
 62
     0
 10
560.924548
 20
-95.432669
 30
0.0
 11
560.924548
 21
-83.745169
 31
0.0
1001
ACAD
1000
RTLwPs
1070
   158
  0
LINE
  5
37AC
  8
COTATION1
 62
     0
 10
508.924548
 20
-84.245169
 30
0.0
 11
557.924548
 21
-84.245169
 31
0.0
1001
ACAD
1000
RTLwPs
1070
   158
  0
INSERT
  5
37AD
  8
COTATION1
 62
     0
  2
_OPEN30
 10
505.924548
 20
-84.245169
 30
0.0
 41
3.0
 42
3.0
 43
3.0
 50
180.0
1001
ACAD
1000
RTLwPs
1070
   158
  0
INSERT
  5
37AE
  8
COTATION1
 62
     0
  2
_OPEN30
 10
560.924548
 20
-84.245169
 30
0.0
 41
3.0
 42
3.0
 43
3.0
1001
ACAD
1000
RTLwPs
1070
   158
  0
TEXT
  5
37AF
  8
COTATION1
 62
     0
 10
530.567405
 20
-83.645169
 30
0.0
 40
3.0
  1
55
1001
ACAD
1000
MTEXTBEGIN
1070
    73
1070
     1
1070
    44
1040
1.0
1070
    74
1070
     0
1000
MTEXTEND
1000
MTEXTBEGIN
1070
    73
1070
     1
1070
    44
1040
1.0
1070
    74
1070
     0
1000
MTEXTEND
  0
POINT
  5
37B0
  8
DEFPOINTS
 62
     0
 10
505.924548
 20
-96.432669
 30
0.0
  0
POINT
  5
37B1
  8
DEFPOINTS
 62
     0
 10
560.924548
 20
-96.432669
 30
0.0
  0
POINT
  5
37B2
  8
DEFPOINTS
 62
     0
 10
560.924548
 20
-84.245169
 30
0.0
  0
ENDBLK
  5
31CA
  8
0
  0
BLOCK
  8
0
  2
*D6
 70
     1
 10
0.0
 20
0.0
 30
0.0
  3
*D6
  1

  0
LINE
  5
3266
  8
COTATION1
 62
     0
 10
520.924548
 20
-114.432669
 30
0.0
 11
520.924548
 21
-130.120169
 31
0.0
1001
ACAD
1000
RTLwPs
1070
   158
  0
LINE
  5
3267
  8
COTATION1
 62
     0
 10
516.924548
 20
-114.432669
 30
0.0
 11
516.924548
 21
-130.120169
 31
0.0
1001
ACAD
1000
RTLwPs
1070
   158
  0
LINE
  5
3268
  8
COTATION1
 62
     0
 10
523.924548
 20
-129.620169
 30
0.0
 11
526.924548
 21
-129.620169
 31
0.0
1001
ACAD
1000
RTLwPs
1070
   158
  0
LINE
  5
3269
  8
COTATION1
 62
     0
 10
513.924548
 20
-129.620169
 30
0.0
 11
507.581691
 21
-129.620169
 31
0.0
1001
ACAD
1000
RTLwPs
1070
   158
  0
INSERT
  5
326A
  8
COTATION1
 62
     0
  2
_OPEN30
 10
520.924548
 20
-129.620169
 30
0.0
 41
3.0
 42
3.0
 43
3.0
 50
180.0
1001
ACAD
1000
RTLwPs
1070
   158
  0
INSERT
  5
326B
  8
COTATION1
 62
     0
  2
_OPEN30
 10
516.924548
 20
-129.620169
 30
0.0
 41
3.0
 42
3.0
 43
3.0
1001
ACAD
1000
RTLwPs
1070
   158
  0
TEXT
  5
326C
  8
COTATION1
 62
     0
 10
507.75312
 20
-129.020169
 30
0.0
 40
3.0
  1
4
1001
ACAD
1000
MTEXTBEGIN
1070
    73
1070
     1
1070
    44
1040
1.0
1070
    74
1070
     0
1000
MTEXTEND
1000
MTEXTBEGIN
1070
    73
1070
     1
1070
    44
1040
1.0
1070
    74
1070
     0
1000
MTEXTEND
  0
POINT
  5
326D
  8
DEFPOINTS
 62
     0
 10
520.924548
 20
-113.432669
 30
0.0
  0
POINT
  5
326E
  8
DEFPOINTS
 62
     0
 10
516.924548
 20
-113.432669
 30
0.0
  0
POINT
  5
326F
  8
DEFPOINTS
 62
     0
 10
516.924548
 20
-129.620169
 30
0.0
  0
ENDBLK
  5
31E5
  8
0
  0
BLOCK
  8
0
  2
*D7
 70
     1
 10
0.0
 20
0.0
 30
0.0
  3
*D7
  1

  0
LINE
  5
3B28
  8
COTATION1
 62
     0
 10
489.224548
 20
-97.932669
 30
0.0
 11
489.224548
 21
-63.745169
 31
0.0
1001
ACAD
1000
RTLwPs
1070
   158
  0
LINE
  5
3B29
  8
COTATION1
 62
     0
 10
596.224548
 20
-98.932669
 30
0.0
 11
596.224548
 21
-63.745169
 31
0.0
1001
ACAD
1000
RTLwPs
1070
   158
  0
LINE
  5
3B2A
  8
COTATION1
 62
     0
 10
492.224548
 20
-64.245169
 30
0.0
 11
593.224548
 21
-64.245169
 31
0.0
1001
ACAD
1000
RTLwPs
1070
   158
  0
INSERT
  5
3B2B
  8
COTATION1
 62
     0
  2
_OPEN30
 10
489.224548
 20
-64.245169
 30
0.0
 41
3.0
 42
3.0
 43
3.0
 50
180.0
1001
ACAD
1000
RTLwPs
1070
   158
  0
INSERT
  5
3B2C
  8
COTATION1
 62
     0
  2
_OPEN30
 10
596.224548
 20
-64.245169
 30
0.0
 41
3.0
 42
3.0
 43
3.0
1001
ACAD
1000
RTLwPs
1070
   158
  0
TEXT
  5
3B2D
  8
COTATION1
 62
     0
 10
538.224548
 20
-63.645169
 30
0.0
 40
3.0
  1
107
1001
ACAD
1000
MTEXTBEGIN
1070
    73
1070
     1
1070
    44
1040
1.0
1070
    74
1070
     0
1000
MTEXTEND
1000
MTEXTBEGIN
1070
    73
1070
     1
1070
    44
1040
1.0
1070
    74
1070
     0
1000
MTEXTEND
  0
POINT
  5
3B2E
  8
DEFPOINTS
 62
     0
 10
489.224548
 20
-98.932669
 30
0.0
  0
POINT
  5
3B2F
  8
DEFPOINTS
 62
     0
 10
596.224548
 20
-99.932669
 30
0.0
  0
POINT
  5
3B30
  8
DEFPOINTS
 62
     0
 10
596.224548
 20
-64.245169
 30
0.0
  0
ENDBLK
  5
3534
  8
0
  0
ENDSEC
  0
SECTION
  2
ENTITIES
  0
INSERT
  5
32
  8
0
  2
COTE
 10
0.0
 20
0.0
 30
0.0
  0
INSERT
  5
36
  8
0
  2
FOND
 10
0.0
 20
0.0
 30
0.0
  0
INSERT
  5
24AE
  8
ALPHA
  2
SCH_ISO
 10
-66.27012
 20
-238.940658
 30
0.0
  0
ARC
  5
2E71
  8
ALPHA
 10
522.421332
 20
-94.307669
 30
0.0
 40
5.496785
 50
142.121051
 51
217.878954
  0
LINE
  5
2E73
  8
ALPHA_FIN
 10
516.924548
 20
-96.432669
 30
0.0
 11
505.924548
 21
-96.432669
 31
0.0
  0
LINE
  5
2E76
  8
ALPHA
 10
516.924548
 20
-95.432669
 30
0.0
 11
506.924548
 21
-95.432669
 31
0.0
  0
LINE
  5
2E77
  8
ALPHA
 10
506.924548
 20
-95.432669
 30
0.0
 11
516.480104
 21
-95.432669
 31
0.0
  0
LINE
  5
2E78
  8
ALPHA
 10
505.924548
 20
-96.432669
 30
0.0
 11
506.924548
 21
-95.432669
 31
0.0
  0
LINE
  5
2E7A
  8
ALPHA
 10
505.924548
 20
-104.432669
 30
0.0
 11
505.924548
 21
-96.432669
 31
0.0
  0
LINE
  5
2E7B
  8
ALPHA
 10
516.924548
 20
-94.307669
 30
0.0
 11
516.924548
 21
-114.557669
 31
0.0
  0
ARC
  5
2E7C
  8
ALPHA
 10
537.174499
 20
-104.432669
 30
0.0
 40
20.249949
 50
160.528731
 51
199.471274
  0
ARC
  5
2E7D
  8
ALPHA
 10
522.421332
 20
-114.557669
 30
0.0
 40
5.496785
 50
142.121051
 51
217.878954
  0
ARC
  5
2E7E
  8
ALPHA
 10
515.427764
 20
-94.298897
 30
0.0
 40
5.496785
 50
322.121056
 51
37.878946
  0
LINE
  5
2E7F
  8
ALPHA
 10
520.924548
 20
-114.548897
 30
0.0
 11
520.924548
 21
-94.298897
 31
0.0
  0
ARC
  5
2E80
  8
ALPHA
 10
500.674602
 20
-104.423897
 30
0.0
 40
20.249949
 50
340.502399
 51
19.471258
  0
ARC
  5
2E81
  8
ALPHA
 10
515.427764
 20
-114.548897
 30
0.0
 40
5.496785
 50
322.005111
 51
37.763191
  0
LINE
  5
2E82
  8
ALPHA
 10
519.766429
 20
-97.673897
 30
0.0
 11
518.082667
 21
-97.682669
 31
0.0
  0
LINE
  5
2E83
  8
ALPHA
 10
519.766429
 20
-90.923897
 30
0.0
 11
518.082667
 21
-90.932669
 31
0.0
  0
LINE
  5
2E8A
  8
ALPHA
 10
518.082667
 20
-117.932669
 30
0.0
 11
519.759592
 21
-117.932669
 31
0.0
  0
LINE
  5
2E8B
  8
ALPHA
 10
518.08267
 20
-111.18267
 30
0.0
 11
519.763326
 21
-111.18267
 31
0.0
  0
LINE
  5
2EA1
  8
ALPHA_FIN
 10
520.924548
 20
-96.432669
 30
0.0
 11
524.924548
 21
-96.432669
 31
0.0
  0
LINE
  5
2EA3
  8
ALPHA
 10
520.924548
 20
-95.432669
 30
0.0
 11
524.924548
 21
-95.432669
 31
0.0
  0
LINE
  5
2EA4
  8
ALPHA
 10
520.924548
 20
-113.432669
 30
0.0
 11
524.924548
 21
-113.432669
 31
0.0
  0
LINE
  5
2FA0
  8
ALPHA
 10
560.924548
 20
-96.432669
 30
0.0
 11
584.224548
 21
-96.432669
 31
0.0
  0
LINE
  5
2FA1
  8
ALPHA
 10
506.924548
 20
-95.432669
 30
0.0
 11
506.924548
 21
-104.432669
 31
0.0
  0
LINE
  5
2FA2
  8
ALPHA
 10
506.924548
 20
-113.432669
 30
0.0
 11
516.924548
 21
-113.432669
 31
0.0
  0
LINE
  5
2FA3
  8
ALPHA
 10
516.480104
 20
-113.432669
 30
0.0
 11
506.924548
 21
-113.432669
 31
0.0
  0
LINE
  5
2FA4
  8
ALPHA_FIN
 10
516.924548
 20
-112.432669
 30
0.0
 11
505.924548
 21
-112.432669
 31
0.0
  0
LINE
  5
2FA5
  8
ALPHA
 10
505.924548
 20
-104.432669
 30
0.0
 11
505.924548
 21
-112.432669
 31
0.0
  0
LINE
  5
2FA6
  8
ALPHA
 10
506.924548
 20
-113.432669
 30
0.0
 11
506.924548
 21
-104.432669
 31
0.0
  0
LINE
  5
2FA7
  8
ALPHA
 10
505.924548
 20
-112.432669
 30
0.0
 11
506.924548
 21
-113.432669
 31
0.0
  0
LINE
  5
2FA8
  8
ALPHA_FIN
 10
520.924548
 20
-112.432669
 30
0.0
 11
524.924548
 21
-112.432669
 31
0.0
  0
LINE
  5
2FA9
  8
ALPHA
 10
559.924548
 20
-95.432669
 30
0.0
 11
528.924548
 21
-95.432669
 31
0.0
  0
LINE
  5
2FAA
  8
ALPHA
 10
528.924548
 20
-95.432669
 30
0.0
 11
559.924548
 21
-95.432669
 31
0.0
  0
LINE
  5
2FAB
  8
ALPHA_FIN
 10
528.924548
 20
-96.432669
 30
0.0
 11
560.924548
 21
-96.432669
 31
0.0
  0
LINE
  5
2FAC
  8
ALPHA
 10
560.924548
 20
-104.432669
 30
0.0
 11
560.924548
 21
-96.432669
 31
0.0
  0
LINE
  5
2FAD
  8
ALPHA
 10
559.924548
 20
-95.432669
 30
0.0
 11
559.924548
 21
-104.432669
 31
0.0
  0
LINE
  5
2FAE
  8
ALPHA
 10
560.924548
 20
-96.432669
 30
0.0
 11
559.924548
 21
-95.432669
 31
0.0
  0
LINE
  5
2FAF
  8
ALPHA_FIN
 10
528.924548
 20
-112.432669
 30
0.0
 11
560.924548
 21
-112.432669
 31
0.0
  0
LINE
  5
2FB0
  8
ALPHA
 10
528.924548
 20
-113.432669
 30
0.0
 11
559.924548
 21
-113.432669
 31
0.0
  0
LINE
  5
2FB1
  8
ALPHA
 10
559.924548
 20
-113.432669
 30
0.0
 11
528.924548
 21
-113.432669
 31
0.0
  0
LINE
  5
2FB2
  8
ALPHA
 10
560.924548
 20
-112.432669
 30
0.0
 11
559.924548
 21
-113.432669
 31
0.0
  0
LINE
  5
2FB3
  8
ALPHA
 10
559.924548
 20
-113.432669
 30
0.0
 11
559.924548
 21
-104.432669
 31
0.0
  0
LINE
  5
2FB4
  8
ALPHA
 10
560.924548
 20
-104.432669
 30
0.0
 11
560.924548
 21
-112.432669
 31
0.0
  0
LINE
  5
2FB6
  8
ALPHA
 10
560.924548
 20
-112.432669
 30
0.0
 11
584.224548
 21
-112.432669
 31
0.0
  0
LINE
  5
2FB8
  8
ALPHA
 10
584.224548
 20
-112.432669
 30
0.0
 11
584.224548
 21
-96.432669
 31
0.0
  0
LINE
  5
2FED
  8
ALPHA
 10
587.224548
 20
-109.182669
 30
0.0
 11
587.224548
 21
-99.632669
 31
0.0
  0
LINE
  5
2FF0
  8
ALPHA
 10
584.224548
 20
-99.682669
 30
0.0
 11
587.224548
 21
-99.682669
 31
0.0
  0
LINE
  5
3004
  8
AXE
 10
551.724548
 20
-90.432669
 30
0.0
 11
551.724548
 21
-131.701458
 31
0.0
  0
TEXT
  5
3005
  8
AXE
 10
544.248358
 20
-131.701458
 30
0.0
 40
8.0
  1
Y
 72
     2
 11
550.724548
 21
-131.701458
 31
0.0
  0
LINE
  5
3006
  8
AXE
 10
610.934664
 20
-104.432669
 30
0.0
 11
499.224548
 21
-104.432669
 31
0.0
  0
TEXT
  5
3007
  8
AXE
 10
604.458474
 20
-103.432669
 30
0.0
 40
8.0
  1
X
 72
     2
 11
610.934664
 21
-103.432669
 31
0.0
  0
SOLID
  5
305D
  8
COTATION1
  6
CONTINUOUS
 10
-555.221551
 20
-116.444956
 30
0.0
 11
-555.243104
 21
-113.403651
 31
0.0
 12
-556.209085
 22
-116.287551
 32
0.0
 13
-556.209085
 23
-116.287551
 33
0.0
210
0.0
220
0.0
230
-1.0
1001
ACAD
1000
DSTYLE
1002
{
1070
     5
1000
OPEN30
1070
   342
1005
DC023301000027E0
1002
}
  0
POLYLINE
  5
3BDB
  8
COTATION1
 66
     1
 10
0.0
 20
0.0
 30
0.0
 70
   128
1001
ACAD
1000
R13OBJECT
1002
{
1005
305D
1002
}
  0
VERTEX
  5
3C3C
  8
COTATION1
 10
555.715318
 20
-116.366254
 30
0.0
  0
VERTEX
  5
3C3D
  8
COTATION1
 10
557.123
 20
-125.197845
 30
0.0
  0
VERTEX
  5
3C3E
  8
COTATION1
 10
573.294429
 20
-125.197845
 30
0.0
  0
SEQEND
  5
3C3F
  8
COTATION1
  0
TEXT
  5
305E
  8
COTATION1
 10
560.151572
 20
-124.188192
 30
0.0
 40
3.0
  1
M18x1
1001
ACAD
1000
MTEXTBEGIN
1070
    73
1070
     1
1070
    44
1040
1.0
1070
    74
1070
     0
1000
MTEXTEND
1000
MTEXTBEGIN
1070
    73
1070
     1
1070
    44
1040
1.0
1070
    74
1070
     0
1000
MTEXTEND
  0
DIMENSION
  5
30B2
  8
COTATION1
  2
*D4
 10
584.224548
 20
-74.245169
 30
0.0
 11
544.224548
 21
-72.145169
 31
0.0
 13
504.224548
 23
-97.932669
 33
0.0
 14
584.224548
 24
-96.432669
 34
0.0
  0
DIMENSION
  5
31BE
  8
COTATION1
  2
*D5
 10
560.924548
 20
-84.245169
 30
0.0
 11
533.424548
 21
-82.145169
 31
0.0
 13
505.924548
 23
-96.432669
 33
0.0
 14
560.924548
 24
-96.432669
 34
0.0
  0
DIMENSION
  5
31D8
  8
COTATION1
  2
*D6
 10
516.924548
 20
-129.620169
 30
0.0
 11
509.25312
 21
-129.620169
 31
0.0
 70
   128
 13
520.924548
 23
-113.432669
 33
0.0
 14
516.924548
 24
-113.432669
 34
0.0
  0
ARC
  5
31F3
  8
ALPHA
 10
523.427764
 20
-114.557669
 30
0.0
 40
5.496785
 50
322.121046
 51
37.878949
  0
LINE
  5
31F4
  8
ALPHA
 10
528.924548
 20
-94.307669
 30
0.0
 11
528.924548
 21
-114.557669
 31
0.0
  0
LINE
  5
31F5
  8
ALPHA
 10
524.924548
 20
-114.548897
 30
0.0
 11
524.924548
 21
-94.298897
 31
0.0
  0
ARC
  5
31F6
  8
ALPHA
 10
530.421332
 20
-114.548897
 30
0.0
 40
5.496785
 50
142.236809
 51
217.994889
  0
LINE
  5
31F7
  8
ALPHA
 10
527.76643
 20
-117.932669
 30
0.0
 11
526.089505
 21
-117.932669
 31
0.0
  0
ARC
  5
31F8
  8
ALPHA
 10
508.674598
 20
-104.432669
 30
0.0
 40
20.249949
 50
340.528726
 51
19.471269
  0
ARC
  5
31F9
  8
ALPHA
 10
545.174495
 20
-104.423897
 30
0.0
 40
20.249949
 50
160.528742
 51
199.497601
  0
LINE
  5
31FA
  8
ALPHA
 10
527.766426
 20
-111.18267
 30
0.0
 11
526.08577
 21
-111.18267
 31
0.0
  0
LINE
  5
31FB
  8
ALPHA
 10
526.082667
 20
-90.923897
 30
0.0
 11
527.766429
 21
-90.932669
 31
0.0
  0
LINE
  5
31FC
  8
ALPHA
 10
526.082667
 20
-97.673897
 30
0.0
 11
527.766429
 21
-97.682669
 31
0.0
  0
ARC
  5
31FD
  8
ALPHA
 10
523.427764
 20
-94.307669
 30
0.0
 40
5.496785
 50
322.121046
 51
37.878949
  0
ARC
  5
31FE
  8
ALPHA
 10
530.421332
 20
-94.298897
 30
0.0
 40
5.496785
 50
142.121054
 51
217.878944
  0
LINE
  5
34C7
  8
ALPHA
 10
596.224548
 20
-99.932669
 30
0.0
 11
596.224548
 21
-104.432669
 31
0.0
  0
LINE
  5
350A
  8
ALPHA
 10
587.924548
 20
-98.932669
 30
0.0
 11
594.824548
 21
-98.932669
 31
0.0
  0
LINE
  5
351D
  8
ALPHA_FIN
 10
595.524548
 20
-99.682669
 30
0.0
 11
587.224548
 21
-99.682669
 31
0.0
  0
LINE
  5
3523
  8
ALPHA
 10
595.524548
 20
-99.932669
 30
0.0
 11
596.224548
 21
-99.932669
 31
0.0
  0
DIMENSION
  5
3528
  8
COTATION1
  2
*D7
 10
596.224548
 20
-64.245169
 30
0.0
 11
542.724548
 21
-62.145169
 31
0.0
 13
489.224548
 23
-98.932669
 33
0.0
 14
596.224548
 24
-99.932669
 34
0.0
  0
LINE
  5
384A
  8
ALPHA
 10
504.224548
 20
-104.432669
 30
0.0
 11
504.224548
 21
-110.932669
 31
0.0
  0
LINE
  5
384B
  8
ALPHA
 10
505.924548
 20
-110.932669
 30
0.0
 11
504.224548
 21
-110.932669
 31
0.0
  0
LINE
  5
384C
  8
ALPHA
 10
505.924548
 20
-97.932669
 30
0.0
 11
504.224548
 21
-97.932669
 31
0.0
  0
LINE
  5
384D
  8
ALPHA
 10
504.224548
 20
-104.432669
 30
0.0
 11
504.224548
 21
-97.932669
 31
0.0
  0
LINE
  5
38A7
  8
ALPHA
 10
576.724548
 20
-96.432669
 30
0.0
 11
576.724548
 21
-112.432669
 31
0.0
  0
LINE
  5
3903
  8
ALPHA
 10
584.224548
 20
-109.182669
 30
0.0
 11
587.224548
 21
-109.182669
 31
0.0
  0
LINE
  5
3904
  8
ALPHA
 10
595.524548
 20
-99.682669
 30
0.0
 11
595.524548
 21
-104.432669
 31
0.0
  0
LINE
  5
390F
  8
ALPHA
 10
595.524548
 20
-109.182669
 30
0.0
 11
595.524548
 21
-104.432669
 31
0.0
  0
LINE
  5
3910
  8
ALPHA
 10
596.224548
 20
-108.932669
 30
0.0
 11
596.224548
 21
-104.432669
 31
0.0
  0
LINE
  5
3911
  8
ALPHA
 10
595.524548
 20
-108.932669
 30
0.0
 11
596.224548
 21
-108.932669
 31
0.0
  0
LINE
  5
391D
  8
ALPHA
 10
587.224548
 20
-99.632669
 30
0.0
 11
587.924548
 21
-98.932669
 31
0.0
  0
LINE
  5
391E
  8
ALPHA
 10
587.924548
 20
-104.432669
 30
0.0
 11
587.924548
 21
-98.932669
 31
0.0
  0
LINE
  5
391F
  8
ALPHA
 10
595.524548
 20
-99.632669
 30
0.0
 11
594.824548
 21
-98.932669
 31
0.0
  0
LINE
  5
3920
  8
ALPHA
 10
594.824548
 20
-104.432669
 30
0.0
 11
594.824548
 21
-98.932669
 31
0.0
  0
LINE
  5
3921
  8
ALPHA
 10
587.924548
 20
-109.932669
 30
0.0
 11
594.824548
 21
-109.932669
 31
0.0
  0
LINE
  5
3922
  8
ALPHA_FIN
 10
595.524548
 20
-109.182669
 30
0.0
 11
587.224548
 21
-109.182669
 31
0.0
  0
LINE
  5
3923
  8
ALPHA
 10
587.924548
 20
-104.432669
 30
0.0
 11
587.924548
 21
-109.932669
 31
0.0
  0
LINE
  5
3924
  8
ALPHA
 10
587.224548
 20
-109.232669
 30
0.0
 11
587.924548
 21
-109.932669
 31
0.0
  0
LINE
  5
3925
  8
ALPHA
 10
594.824548
 20
-104.432669
 30
0.0
 11
594.824548
 21
-109.932669
 31
0.0
  0
LINE
  5
3926
  8
ALPHA
 10
595.524548
 20
-109.232669
 30
0.0
 11
594.824548
 21
-109.932669
 31
0.0
  0
LINE
  5
3B24
  8
ALPHA
 10
489.224548
 20
-98.932669
 30
0.0
 11
504.224548
 21
-110.932669
 31
0.0
  0
LINE
  5
3B25
  8
ALPHA
 10
489.224548
 20
-98.932669
 30
0.0
 11
504.224548
 21
-98.932669
 31
0.0
  0
LINE
  5
3B26
  8
ALPHA
 10
504.224548
 20
-110.932669
 30
0.0
 11
489.224548
 21
-110.932669
 31
0.0
  0
LINE
  5
3B27
  8
ALPHA_FIN
 10
489.224548
 20
-98.932669
 30
0.0
 11
489.224548
 21
-110.932669
 31
0.0
  0
ENDSEC
  0
EOF
