  0
SECTION
  2
HEADER
  9
$ACADVER
  1
AC1014
  9
$ACADMAINTVER
 70
     9
  9
$DWGCODEPAGE
  3
ANSI_1252
  9
$INSBASE
 10
0.0
 20
0.0
 30
0.0
  9
$EXTMIN
 10
0.0
 20
0.0
 30
0.0
  9
$EXTMAX
 10
32.80000199999999
 20
20.5
 30
0.0
  9
$LIMMIN
 10
0.0
 20
0.0
  9
$LIMMAX
 10
32.80000199999999
 20
20.5
  9
$ORTHOMODE
 70
     0
  9
$REGENMODE
 70
     1
  9
$FILLMODE
 70
     1
  9
$QTEXTMODE
 70
     0
  9
$MIRRTEXT
 70
     1
  9
$DRAGMODE
 70
     2
  9
$LTSCALE
 40
1.0
  9
$OSMODE
 70
   255
  9
$ATTMODE
 70
     1
  9
$TEXTSIZE
 40
0.2
  9
$TRACEWID
 40
0.05
  9
$TEXTSTYLE
  7
ROMANS
  9
$CLAYER
  8
CONTINUOUS1
  9
$CELTYPE
  6
BYLAYER
  9
$CECOLOR
 62
   256
  9
$CELTSCALE
 40
1.0
  9
$DELOBJ
 70
     1
  9
$DISPSILH
 70
     0
  9
$DIMSCALE
 40
0.0
  9
$DIMASZ
 40
0.07
  9
$DIMEXO
 40
0.0625
  9
$DIMDLI
 40
0.38
  9
$DIMRND
 40
0.001
  9
$DIMDLE
 40
0.0
  9
$DIMEXE
 40
0.0625
  9
$DIMTP
 40
0.0
  9
$DIMTM
 40
0.0
  9
$DIMTXT
 40
0.1
  9
$DIMCEN
 40
0.09
  9
$DIMTSZ
 40
0.0
  9
$DIMTOL
 70
     0
  9
$DIMLIM
 70
     0
  9
$DIMTIH
 70
     1
  9
$DIMTOH
 70
     1
  9
$DIMSE1
 70
     0
  9
$DIMSE2
 70
     0
  9
$DIMTAD
 70
     0
  9
$DIMZIN
 70
     4
  9
$DIMBLK
  1
SEARROW
  9
$DIMASO
 70
     1
  9
$DIMSHO
 70
     1
  9
$DIMPOST
  1

  9
$DIMAPOST
  1

  9
$DIMALT
 70
     0
  9
$DIMALTD
 70
     1
  9
$DIMALTF
 40
25.4
  9
$DIMLFAC
 40
1.0
  9
$DIMTOFL
 70
     0
  9
$DIMTVP
 40
0.0
  9
$DIMTIX
 70
     0
  9
$DIMSOXD
 70
     0
  9
$DIMSAH
 70
     0
  9
$DIMBLK1
  1

  9
$DIMBLK2
  1

  9
$DIMSTYLE
  2
SCHNEIDERELECTRIC
  9
$DIMCLRD
 70
   256
  9
$DIMCLRE
 70
   256
  9
$DIMCLRT
 70
   256
  9
$DIMTFAC
 40
1.0
  9
$DIMGAP
 40
0.04
  9
$DIMJUST
 70
     0
  9
$DIMSD1
 70
     0
  9
$DIMSD2
 70
     0
  9
$DIMTOLJ
 70
     1
  9
$DIMTZIN
 70
     0
  9
$DIMALTZ
 70
     0
  9
$DIMALTTZ
 70
     0
  9
$DIMFIT
 70
     3
  9
$DIMUPT
 70
     0
  9
$DIMUNIT
 70
     2
  9
$DIMDEC
 70
     2
  9
$DIMTDEC
 70
     2
  9
$DIMALTU
 70
     2
  9
$DIMALTTD
 70
     1
  9
$DIMTXSTY
  7
ROMANS
  9
$DIMAUNIT
 70
     0
  9
$LUNITS
 70
     2
  9
$LUPREC
 70
     4
  9
$SKETCHINC
 40
0.1
  9
$FILLETRAD
 40
0.1
  9
$AUNITS
 70
     0
  9
$AUPREC
 70
     0
  9
$MENU
  1
.
  9
$ELEVATION
 40
0.0
  9
$PELEVATION
 40
0.0
  9
$THICKNESS
 40
0.0
  9
$LIMCHECK
 70
     0
  9
$BLIPMODE
 70
     0
  9
$CHAMFERA
 40
0.5
  9
$CHAMFERB
 40
0.5
  9
$CHAMFERC
 40
0.125
  9
$CHAMFERD
 40
0.7853981633974483
  9
$SKPOLY
 70
     0
  9
$TDCREATE
 40
2451764.576708576
  9
$TDUPDATE
 40
2452062.400232638
  9
$TDINDWG
 40
2.0726351852
  9
$TDUSRTIMER
 40
2.0726349537
  9
$USRTIMER
 70
     1
  9
$ANGBASE
 50
0.0
  9
$ANGDIR
 70
     0
  9
$PDMODE
 70
     0
  9
$PDSIZE
 40
0.0
  9
$PLINEWID
 40
0.0
  9
$COORDS
 70
     2
  9
$SPLFRAME
 70
     0
  9
$SPLINETYPE
 70
     6
  9
$SPLINESEGS
 70
     8
  9
$ATTDIA
 70
     0
  9
$ATTREQ
 70
     1
  9
$HANDLING
 70
 12289
  9
$HANDSEED
  5
95B9
  9
$SURFTAB1
 70
     6
  9
$SURFTAB2
 70
     6
  9
$SURFTYPE
 70
     6
  9
$SURFU
 70
     6
  9
$SURFV
 70
     6
  9
$UCSNAME
  2

  9
$UCSORG
 10
0.0
 20
0.0
 30
0.0
  9
$UCSXDIR
 10
1.0
 20
0.0
 30
0.0
  9
$UCSYDIR
 10
0.0
 20
1.0
 30
0.0
  9
$PUCSNAME
  2

  9
$PUCSORG
 10
0.0
 20
0.0
 30
0.0
  9
$PUCSXDIR
 10
1.0
 20
0.0
 30
0.0
  9
$PUCSYDIR
 10
0.0
 20
1.0
 30
0.0
  9
$USERI1
 70
     0
  9
$USERI2
 70
     0
  9
$USERI3
 70
     0
  9
$USERI4
 70
     0
  9
$USERI5
 70
     0
  9
$USERR1
 40
0.0
  9
$USERR2
 40
0.0
  9
$USERR3
 40
0.0
  9
$USERR4
 40
0.0
  9
$USERR5
 40
0.0
  9
$WORLDVIEW
 70
     1
  9
$SHADEDGE
 70
     3
  9
$SHADEDIF
 70
    70
  9
$TILEMODE
 70
     0
  9
$MAXACTVP
 70
    48
  9
$PINSBASE
 10
0.0
 20
0.0
 30
0.0
  9
$PLIMCHECK
 70
     0
  9
$PEXTMIN
 10
0.0
 20
-0.1507193079929352
 30
0.0
  9
$PEXTMAX
 10
16.40000099999999
 20
10.25
 30
0.0
  9
$PLIMMIN
 10
-0.3022988315385811
 20
-0.4421500682141223
  9
$PLIMMAX
 10
16.69770068786963
 20
10.55784969148998
  9
$UNITMODE
 70
     0
  9
$VISRETAIN
 70
     1
  9
$PLINEGEN
 70
     0
  9
$PSLTSCALE
 70
     1
  9
$TREEDEPTH
 70
  3020
  9
$PICKSTYLE
 70
     1
  9
$CMLSTYLE
  2
STANDARD
  9
$CMLJUST
 70
     0
  9
$CMLSCALE
 40
1.0
  9
$PROXYGRAPHICS
 70
     1
  9
$MEASUREMENT
 70
     0
  0
ENDSEC
  0
SECTION
  2
CLASSES
  0
CLASS
  1
ACDBDICTIONARYWDFLT
  2
AcDbDictionaryWithDefault
  3
AutoCAD 2000
 90
        0
280
     0
281
     0
  0
CLASS
  1
ACDBPLACEHOLDER
  2
AcDbPlaceHolder
  3
AutoCAD 2000
 90
        0
280
     0
281
     0
  0
CLASS
  1
LAYOUT
  2
AcDbLayout
  3
AutoCAD 2000
 90
        0
280
     0
281
     0
  0
CLASS
  1
LONG_TRANSACTION
  2
AcDbLongTransaction
  3
AutoCAD 2000
 90
        0
280
     0
281
     0
  0
CLASS
  1
LWPOLYLINE
  2
AcDbPolyline
  3
AutoCAD 2000
 90
        0
280
     0
281
     1
  0
CLASS
  1
HATCH
  2
AcDbHatch
  3
AutoCAD 2000
 90
        0
280
     0
281
     1
  0
CLASS
  1
XRECORD
  2
AcDbXrecord
  3
AutoCAD 2000
 90
        0
280
     0
281
     0
  0
CLASS
  1
LONG_TRANSACTION
  2
AcDbLongTransaction
  3
AutoCAD 2000
 90
        0
280
     0
281
     0
  0
CLASS
  1
LWPOLYLINE
  2
AcDbPolyline
  3
AutoCAD 2000
 90
        0
280
     0
281
     1
  0
CLASS
  1
HATCH
  2
AcDbHatch
  3
AutoCAD 2000
 90
        0
280
     0
281
     1
  0
CLASS
  1
XRECORD
  2
AcDbXrecord
  3
AutoCAD 2000
 90
        0
280
     0
281
     0
  0
CLASS
  1
LONG_TRANSACTION
  2
AcDbLongTransaction
  3
AutoCAD 2000
 90
        0
280
     0
281
     0
  0
CLASS
  1
LWPOLYLINE
  2
AcDbPolyline
  3
AutoCAD 2000
 90
        0
280
     0
281
     1
  0
CLASS
  1
HATCH
  2
AcDbHatch
  3
AutoCAD 2000
 90
        0
280
     0
281
     1
  0
CLASS
  1
XRECORD
  2
AcDbXrecord
  3
AutoCAD 2000
 90
        0
280
     0
281
     0
  0
CLASS
  1
PLOTSETTINGS
  2
AcDbPlotSettings
  3
AutoCAD 2000
 90
        0
280
     0
281
     0
  0
CLASS
  1
ACME_DOCUMENT
  2
AcMeDbDoc
  3
AcMeServices
 90
        0
280
     0
281
     0
  0
CLASS
  1
AMGSETTINGSOBJ
  2
AmgSettingsObj
  3
"AcadM|Product Description: AutoCAD Mechanical 2000|Company: Autodesk"
 90
        0
280
     0
281
     0
  0
CLASS
  1
ACMESCOPE
  2
AcMeScope
  3
AcMeServices
 90
        0
280
     0
281
     0
  0
CLASS
  1
ACMECOMMANDHISTORY
  2
AcMeCommandHistory
  3
AcMeServices
 90
        0
280
     0
281
     0
  0
CLASS
  1
DICTIONARYVAR
  2
AcDbDictionaryVar
  3
AutoCAD 2000
 90
        0
280
     0
281
     0
  0
CLASS
  1
ACIMSYSVARMAN
  2
AcImSysVarManager
  3
AcMeServices
 90
        0
280
     0
281
     0
  0
CLASS
  1
ACIMREALSYSVAR
  2
AcImRealSysVar
  3
AcMeServices
 90
        0
280
     0
281
     0
  0
CLASS
  1
ACIMINTSYSVAR
  2
AcImIntSysVar
  3
AcMeServices
 90
        0
280
     0
281
     0
  0
CLASS
  1
ACMEDRAWINGMAN
  2
AcMeDrawingMan
  3
AcMeServices
 90
        0
280
     0
281
     0
  0
CLASS
  1
ACMEVIEW
  2
AcMeView
  3
AcMeServices
 90
        0
280
     0
281
     0
  0
CLASS
  1
ACDBENTITYCACHE
  2
AcMeEntityCache
  3
AcMeServices
 90
        0
280
     0
281
     0
  0
CLASS
  1
GSMANAGER
  2
AcMeGSManager
  3
AcMeServices
 90
        0
280
     0
281
     0
  0
CLASS
  1
AmdtInternalReactor
  2
AmdtInternalReactor
  3
AcMeServices
 90
        0
280
     0
281
     0
  0
CLASS
  1
ACMESTATEMGR
  2
AcMeStateMgr
  3
AcMeServices
 90
        0
280
     0
281
     0
  0
CLASS
  1
ACME_DATABASE
  2
AcMeDbDatabase
  3
AcMeServices
 90
        0
280
     0
281
     0
  0
CLASS
  1
ACRFINSADJUSTERMGR
  2
AcRfInsAdjusterMgr
  3
AcMeServices
 90
        0
280
     0
281
     0
  0
CLASS
  1
ACMDATADICTIONARY
  2
AcmDataDictionary
  3
"AcmSymBB|Product Description: AutoCAD Mechanical 2000|Company: Autodesk"
 90
        0
280
     0
281
     0
  0
CLASS
  1
ACMDATAENTRYBLOCK
  2
AcmDataEntryBlock
  3
"AcmSymBB|Product Description: AutoCAD Mechanical 2000|Company: Autodesk"
 90
        0
280
     0
281
     0
  0
CLASS
  1
AMGOBJPROPCFG
  2
AmgObjPropCfg
  3
"AmgLay|Product Description: AutoCAD Mechanical 2000|Company: Autodesk"
 90
        1
280
     0
281
     0
  0
CLASS
  1
ACAMGFILTERDAT
  2
AcAmgFilterDat
  3
"AcadM|Product Description: AutoCAD Mechanical 2000|Company: Autodesk"
 90
        0
280
     0
281
     0
  0
CLASS
  1
LAYER_INDEX
  2
AcDbLayerIndex
  3
AutoCAD 2000
 90
        0
280
     0
281
     0
  0
CLASS
  1
IDBUFFER
  2
AcDbIdBuffer
  3
AutoCAD 2000
 90
        0
280
     0
281
     0
  0
CLASS
  1
LONG_TRANSACTION
  2
AcDbLongTransaction
  3
AutoCAD 2000
 90
        0
280
     0
281
     0
  0
CLASS
  1
LWPOLYLINE
  2
AcDbPolyline
  3
AutoCAD 2000
 90
        0
280
     0
281
     1
  0
CLASS
  1
HATCH
  2
AcDbHatch
  3
AutoCAD 2000
 90
        0
280
     0
281
     1
  0
CLASS
  1
XRECORD
  2
AcDbXrecord
  3
AutoCAD 2000
 90
        0
280
     0
281
     0
  0
CLASS
  1
LONG_TRANSACTION
  2
AcDbLongTransaction
  3
AutoCAD 2000
 90
        0
280
     0
281
     0
  0
CLASS
  1
LWPOLYLINE
  2
AcDbPolyline
  3
AutoCAD 2000
 90
        0
280
     0
281
     1
  0
CLASS
  1
HATCH
  2
AcDbHatch
  3
AutoCAD 2000
 90
        0
280
     0
281
     1
  0
CLASS
  1
XRECORD
  2
AcDbXrecord
  3
AutoCAD 2000
 90
        0
280
     0
281
     0
  0
CLASS
  1
LONG_TRANSACTION
  2
AcDbLongTransaction
  3
AutoCAD 2000
 90
        0
280
     0
281
     0
  0
CLASS
  1
LWPOLYLINE
  2
AcDbPolyline
  3
AutoCAD 2000
 90
        0
280
     0
281
     1
  0
CLASS
  1
HATCH
  2
AcDbHatch
  3
AutoCAD 2000
 90
        0
280
     0
281
     1
  0
CLASS
  1
XRECORD
  2
AcDbXrecord
  3
AutoCAD 2000
 90
        0
280
     0
281
     0
  0
CLASS
  1
LONG_TRANSACTION
  2
AcDbLongTransaction
  3
AutoCAD 2000
 90
        0
280
     0
281
     0
  0
CLASS
  1
LWPOLYLINE
  2
AcDbPolyline
  3
AutoCAD 2000
 90
        0
280
     0
281
     1
  0
CLASS
  1
HATCH
  2
AcDbHatch
  3
AutoCAD 2000
 90
        0
280
     0
281
     1
  0
CLASS
  1
XRECORD
  2
AcDbXrecord
  3
AutoCAD 2000
 90
        0
280
     0
281
     0
  0
CLASS
  1
LONG_TRANSACTION
  2
AcDbLongTransaction
  3
AutoCAD 2000
 90
        0
280
     0
281
     0
  0
CLASS
  1
LWPOLYLINE
  2
AcDbPolyline
  3
AutoCAD 2000
 90
        0
280
     0
281
     1
  0
CLASS
  1
HATCH
  2
AcDbHatch
  3
AutoCAD 2000
 90
        0
280
     0
281
     1
  0
CLASS
  1
XRECORD
  2
AcDbXrecord
  3
AutoCAD 2000
 90
        0
280
     0
281
     0
  0
CLASS
  1
LONG_TRANSACTION
  2
AcDbLongTransaction
  3
AutoCAD 2000
 90
        0
280
     0
281
     0
  0
CLASS
  1
LWPOLYLINE
  2
AcDbPolyline
  3
AutoCAD 2000
 90
        0
280
     0
281
     1
  0
CLASS
  1
HATCH
  2
AcDbHatch
  3
AutoCAD 2000
 90
        0
280
     0
281
     1
  0
CLASS
  1
XRECORD
  2
AcDbXrecord
  3
AutoCAD 2000
 90
        0
280
     0
281
     0
  0
CLASS
  1
LONG_TRANSACTION
  2
AcDbLongTransaction
  3
AutoCAD 2000
 90
        0
280
     0
281
     0
  0
CLASS
  1
LWPOLYLINE
  2
AcDbPolyline
  3
AutoCAD 2000
 90
        0
280
     0
281
     1
  0
CLASS
  1
HATCH
  2
AcDbHatch
  3
AutoCAD 2000
 90
        0
280
     0
281
     1
  0
CLASS
  1
XRECORD
  2
AcDbXrecord
  3
AutoCAD 2000
 90
        0
280
     0
281
     0
  0
CLASS
  1
LONG_TRANSACTION
  2
AcDbLongTransaction
  3
AutoCAD 2000
 90
        0
280
     0
281
     0
  0
CLASS
  1
LWPOLYLINE
  2
AcDbPolyline
  3
AutoCAD 2000
 90
        0
280
     0
281
     1
  0
CLASS
  1
HATCH
  2
AcDbHatch
  3
AutoCAD 2000
 90
        0
280
     0
281
     1
  0
CLASS
  1
XRECORD
  2
AcDbXrecord
  3
AutoCAD 2000
 90
        0
280
     0
281
     0
  0
CLASS
  1
LONG_TRANSACTION
  2
AcDbLongTransaction
  3
AutoCAD 2000
 90
        0
280
     0
281
     0
  0
CLASS
  1
LWPOLYLINE
  2
AcDbPolyline
  3
AutoCAD 2000
 90
        0
280
     0
281
     1
  0
CLASS
  1
HATCH
  2
AcDbHatch
  3
AutoCAD 2000
 90
        0
280
     0
281
     1
  0
CLASS
  1
XRECORD
  2
AcDbXrecord
  3
AutoCAD 2000
 90
        0
280
     0
281
     0
  0
CLASS
  1
LONG_TRANSACTION
  2
AcDbLongTransaction
  3
AutoCAD 2000
 90
        0
280
     0
281
     0
  0
CLASS
  1
LWPOLYLINE
  2
AcDbPolyline
  3
AutoCAD 2000
 90
        0
280
     0
281
     1
  0
CLASS
  1
HATCH
  2
AcDbHatch
  3
AutoCAD 2000
 90
        0
280
     0
281
     1
  0
CLASS
  1
XRECORD
  2
AcDbXrecord
  3
AutoCAD 2000
 90
        0
280
     0
281
     0
  0
CLASS
  1
LONG_TRANSACTION
  2
AcDbLongTransaction
  3
AutoCAD 2000
 90
        0
280
     0
281
     0
  0
CLASS
  1
LWPOLYLINE
  2
AcDbPolyline
  3
AutoCAD 2000
 90
        0
280
     0
281
     1
  0
CLASS
  1
HATCH
  2
AcDbHatch
  3
AutoCAD 2000
 90
        0
280
     0
281
     1
  0
CLASS
  1
XRECORD
  2
AcDbXrecord
  3
AutoCAD 2000
 90
        0
280
     0
281
     0
  0
CLASS
  1
LONG_TRANSACTION
  2
AcDbLongTransaction
  3
AutoCAD 2000
 90
        0
280
     0
281
     0
  0
CLASS
  1
LWPOLYLINE
  2
AcDbPolyline
  3
AutoCAD 2000
 90
        0
280
     0
281
     1
  0
CLASS
  1
HATCH
  2
AcDbHatch
  3
AutoCAD 2000
 90
        0
280
     0
281
     1
  0
CLASS
  1
XRECORD
  2
AcDbXrecord
  3
AutoCAD 2000
 90
        0
280
     0
281
     0
  0
CLASS
  1
LONG_TRANSACTION
  2
AcDbLongTransaction
  3
AutoCAD 2000
 90
        0
280
     0
281
     0
  0
CLASS
  1
LWPOLYLINE
  2
AcDbPolyline
  3
AutoCAD 2000
 90
        0
280
     0
281
     1
  0
CLASS
  1
HATCH
  2
AcDbHatch
  3
AutoCAD 2000
 90
        0
280
     0
281
     1
  0
CLASS
  1
XRECORD
  2
AcDbXrecord
  3
AutoCAD 2000
 90
        0
280
     0
281
     0
  0
CLASS
  1
LONG_TRANSACTION
  2
AcDbLongTransaction
  3
AutoCAD 2000
 90
        0
280
     0
281
     0
  0
CLASS
  1
LWPOLYLINE
  2
AcDbPolyline
  3
AutoCAD 2000
 90
        0
280
     0
281
     1
  0
CLASS
  1
HATCH
  2
AcDbHatch
  3
AutoCAD 2000
 90
        0
280
     0
281
     1
  0
CLASS
  1
XRECORD
  2
AcDbXrecord
  3
AutoCAD 2000
 90
        0
280
     0
281
     0
  0
CLASS
  1
LONG_TRANSACTION
  2
AcDbLongTransaction
  3
AutoCAD 2000
 90
        0
280
     0
281
     0
  0
CLASS
  1
LWPOLYLINE
  2
AcDbPolyline
  3
AutoCAD 2000
 90
        0
280
     0
281
     1
  0
CLASS
  1
HATCH
  2
AcDbHatch
  3
AutoCAD 2000
 90
        0
280
     0
281
     1
  0
CLASS
  1
XRECORD
  2
AcDbXrecord
  3
AutoCAD 2000
 90
        0
280
     0
281
     0
  0
CLASS
  1
LONG_TRANSACTION
  2
AcDbLongTransaction
  3
AutoCAD 2000
 90
        0
280
     0
281
     0
  0
CLASS
  1
LWPOLYLINE
  2
AcDbPolyline
  3
AutoCAD 2000
 90
        0
280
     0
281
     1
  0
CLASS
  1
HATCH
  2
AcDbHatch
  3
AutoCAD 2000
 90
        0
280
     0
281
     1
  0
CLASS
  1
XRECORD
  2
AcDbXrecord
  3
AutoCAD 2000
 90
        0
280
     0
281
     0
  0
CLASS
  1
LONG_TRANSACTION
  2
AcDbLongTransaction
  3
AutoCAD 2000
 90
        0
280
     0
281
     0
  0
CLASS
  1
LWPOLYLINE
  2
AcDbPolyline
  3
AutoCAD 2000
 90
        0
280
     0
281
     1
  0
CLASS
  1
HATCH
  2
AcDbHatch
  3
AutoCAD 2000
 90
        0
280
     0
281
     1
  0
CLASS
  1
XRECORD
  2
AcDbXrecord
  3
AutoCAD 2000
 90
        0
280
     0
281
     0
  0
ENDSEC
  0
SECTION
  2
TABLES
  0
TABLE
  2
VPORT
  5
8
330
0
100
AcDbSymbolTable
 70
     1
  0
VPORT
  5
9473
330
8
100
AcDbSymbolTableRecord
100
AcDbViewportTableRecord
  2
*ACTIVE
 70
     0
 10
0.0
 20
0.0
 11
1.0
 21
1.0
 12
16.46424848742828
 22
10.25000009546347
 13
0.0
 23
0.0
 14
0.5
 24
0.5
 15
0.5
 25
0.5
 16
0.0
 26
0.0
 36
1.0
 17
0.0
 27
0.0
 37
0.0
 40
20.66740200183481
 41
1.684069611780455
 42
50.0
 43
0.0
 44
0.0
 50
0.0
 51
0.0
 71
     0
 72
   100
 73
     1
 74
     2
 75
     0
 76
     0
 77
     0
 78
     0
  0
ENDTAB
  0
TABLE
  2
LTYPE
  5
5
330
0
100
AcDbSymbolTable
 70
     6
  0
LTYPE
  5
14
330
5
100
AcDbSymbolTableRecord
100
AcDbLinetypeTableRecord
  2
BYBLOCK
 70
     0
  3

 72
    65
 73
     0
 40
0.0
  0
LTYPE
  5
15
330
5
100
AcDbSymbolTableRecord
100
AcDbLinetypeTableRecord
  2
BYLAYER
 70
     0
  3

 72
    65
 73
     0
 40
0.0
  0
LTYPE
  5
16
330
5
100
AcDbSymbolTableRecord
100
AcDbLinetypeTableRecord
  2
CONTINUOUS
 70
     0
  3
Solid line
 72
    65
 73
     0
 40
0.0
  0
LTYPE
  5
3D
330
5
100
AcDbSymbolTableRecord
100
AcDbLinetypeTableRecord
  2
CENTER2
 70
     0
  3
Center (.5x) ___ _ ___ _ ___ _ ___ _ ___ _ ___
 72
    65
 73
     4
 40
1.125
 49
0.75
 74
     0
 49
-0.125
 74
     0
 49
0.125
 74
     0
 49
-0.125
 74
     0
  0
LTYPE
  5
3E
330
5
100
AcDbSymbolTableRecord
100
AcDbLinetypeTableRecord
  2
DASHDOT2
 70
     0
  3
Dash dot (.5x) _._._._._._._._._._._._._._._.
 72
    65
 73
     4
 40
0.5
 49
0.25
 74
     0
 49
-0.125
 74
     0
 49
0.0
 74
     0
 49
-0.125
 74
     0
  0
LTYPE
  5
3F
330
5
100
AcDbSymbolTableRecord
100
AcDbLinetypeTableRecord
  2
DASHED2
 70
     0
  3
Dashed (.5x) _ _ _ _ _ _ _ _ _ _ _ _ _ _ _ _ _
 72
    65
 73
     2
 40
0.375
 49
0.25
 74
     0
 49
-0.125
 74
     0
  0
LTYPE
  5
40
330
5
100
AcDbSymbolTableRecord
100
AcDbLinetypeTableRecord
  2
HIDDEN2
 70
     0
  3
Hidden (.5x) _ _ _ _ _ _ _ _ _ _ _ _ _ _ _ _ _
 72
    65
 73
     2
 40
0.1875
 49
0.125
 74
     0
 49
-0.0625
 74
     0
  0
LTYPE
  5
41
330
5
100
AcDbSymbolTableRecord
100
AcDbLinetypeTableRecord
  2
PHANTOM2
 70
     0
  3
Phantom (.5x) ___ _ _ ___ _ _ ___ _ _ ___ _ _
 72
    65
 73
     6
 40
1.25
 49
0.625
 74
     0
 49
-0.125
 74
     0
 49
0.125
 74
     0
 49
-0.125
 74
     0
 49
0.125
 74
     0
 49
-0.125
 74
     0
  0
ENDTAB
  0
TABLE
  2
LAYER
  5
2
330
0
100
AcDbSymbolTable
 70
    25
  0
LAYER
  5
10
330
2
100
AcDbSymbolTableRecord
100
AcDbLayerTableRecord
  2
0
 70
     0
 62
     7
  6
CONTINUOUS
  0
LAYER
  5
42
330
2
100
AcDbSymbolTableRecord
100
AcDbLayerTableRecord
  2
BLOCKS
 70
     0
 62
     7
  6
CONTINUOUS
  0
LAYER
  5
43
330
2
100
AcDbSymbolTableRecord
100
AcDbLayerTableRecord
  2
CENTER1
 70
     0
 62
     2
  6
CENTER2
  0
LAYER
  5
44
330
2
100
AcDbSymbolTableRecord
100
AcDbLayerTableRecord
  2
CENTER2
 70
     0
 62
    50
  6
CENTER2
  0
LAYER
  5
45
330
2
100
AcDbSymbolTableRecord
100
AcDbLayerTableRecord
  2
CENTER3
 70
     0
 62
    51
  6
CENTER2
  0
LAYER
  5
46
330
2
100
AcDbSymbolTableRecord
100
AcDbLayerTableRecord
  2
CONSTRUCTION
 70
     0
 62
   241
  6
DASHED2
  0
LAYER
  5
47
330
2
100
AcDbSymbolTableRecord
100
AcDbLayerTableRecord
  2
CONTINUOUS1
 70
     0
 62
     7
  6
CONTINUOUS
  0
LAYER
  5
48
330
2
100
AcDbSymbolTableRecord
100
AcDbLayerTableRecord
  2
CONTINUOUS2
 70
     0
 62
   254
  6
CONTINUOUS
  0
LAYER
  5
49
330
2
100
AcDbSymbolTableRecord
100
AcDbLayerTableRecord
  2
CONTINUOUS3
 70
     0
 62
   253
  6
CONTINUOUS
  0
LAYER
  5
4A
330
2
100
AcDbSymbolTableRecord
100
AcDbLayerTableRecord
  2
DASHDOT1
 70
     0
 62
     1
  6
DASHDOT2
  0
LAYER
  5
4B
330
2
100
AcDbSymbolTableRecord
100
AcDbLayerTableRecord
  2
DASHDOT2
 70
     0
 62
    10
  6
DASHDOT2
  0
LAYER
  5
4C
330
2
100
AcDbSymbolTableRecord
100
AcDbLayerTableRecord
  2
DASHDOT3
 70
     0
 62
    12
  6
DASHDOT2
  0
LAYER
  5
4D
330
2
100
AcDbSymbolTableRecord
100
AcDbLayerTableRecord
  2
DIM
 70
     0
 62
     2
  6
CONTINUOUS
  0
LAYER
  5
4E
330
2
100
AcDbSymbolTableRecord
100
AcDbLayerTableRecord
  2
HIDDEN1
 70
     0
 62
     5
  6
HIDDEN2
  0
LAYER
  5
4F
330
2
100
AcDbSymbolTableRecord
100
AcDbLayerTableRecord
  2
HIDDEN2
 70
     0
 62
   160
  6
HIDDEN2
  0
LAYER
  5
50
330
2
100
AcDbSymbolTableRecord
100
AcDbLayerTableRecord
  2
HIDDEN3
 70
     0
 62
   162
  6
HIDDEN2
  0
LAYER
  5
52
330
2
100
AcDbSymbolTableRecord
100
AcDbLayerTableRecord
  2
PHANTOM1
 70
     0
 62
     6
  6
PHANTOM2
  0
LAYER
  5
53
330
2
100
AcDbSymbolTableRecord
100
AcDbLayerTableRecord
  2
PHANTOM2
 70
     0
 62
   210
  6
PHANTOM2
  0
LAYER
  5
54
330
2
100
AcDbSymbolTableRecord
100
AcDbLayerTableRecord
  2
PHANTOM3
 70
     0
 62
   212
  6
PHANTOM2
  0
LAYER
  5
55
330
2
100
AcDbSymbolTableRecord
100
AcDbLayerTableRecord
  2
TEXT1
 70
     0
 62
     3
  6
CONTINUOUS
  0
LAYER
  5
56
330
2
100
AcDbSymbolTableRecord
100
AcDbLayerTableRecord
  2
TEXT2
 70
     0
 62
    80
  6
CONTINUOUS
  0
LAYER
  5
57
330
2
100
AcDbSymbolTableRecord
100
AcDbLayerTableRecord
  2
TEXT3
 70
     0
 62
    82
  6
CONTINUOUS
  0
LAYER
  5
58
330
2
100
AcDbSymbolTableRecord
100
AcDbLayerTableRecord
  2
TITLEBLOCK
 70
     0
 62
     9
  6
CONTINUOUS
  0
LAYER
  5
59
330
2
100
AcDbSymbolTableRecord
100
AcDbLayerTableRecord
  2
VIEWPORT
 70
     0
 62
     9
  6
CONTINUOUS
  0
LAYER
  5
20D2
330
2
100
AcDbSymbolTableRecord
100
AcDbLayerTableRecord
  2
DEFPOINTS
 70
     0
 62
     7
  6
CONTINUOUS
  0
ENDTAB
  0
TABLE
  2
STYLE
  5
3
330
0
100
AcDbSymbolTable
 70
     4
  0
STYLE
  5
11
330
3
100
AcDbSymbolTableRecord
100
AcDbTextStyleTableRecord
  2
STANDARD
 70
     0
 40
0.0
 41
1.0
 50
0.0
 71
     0
 42
0.2
  3
txt
  4

  0
STYLE
  5
36
330
3
100
AcDbSymbolTableRecord
100
AcDbTextStyleTableRecord
  2
ROMANS
 70
     0
 40
0.0
 41
1.0
 50
0.0
 71
     0
 42
0.2
  3
romans.shx
  4

  0
STYLE
  5
6CC
330
3
100
AcDbSymbolTableRecord
100
AcDbTextStyleTableRecord
  2
M_STANDARD
 70
     0
 40
0.0
 41
0.8
 50
0.0
 71
     0
 42
0.0
  3
MEDUSA.SHX
  4

  0
STYLE
  5
E4A
330
3
100
AcDbSymbolTableRecord
100
AcDbTextStyleTableRecord
  2
SIMPLEX
 70
     0
 40
0.0
 41
1.0
 50
0.0
 71
     0
 42
0.25
  3
SIMPLEX.shx
  4

  0
ENDTAB
  0
TABLE
  2
VIEW
  5
6
330
0
100
AcDbSymbolTable
 70
     0
  0
ENDTAB
  0
TABLE
  2
UCS
  5
7
330
0
100
AcDbSymbolTable
 70
     0
  0
ENDTAB
  0
TABLE
  2
APPID
  5
9
330
0
100
AcDbSymbolTable
 70
    11
  0
APPID
  5
12
330
9
100
AcDbSymbolTableRecord
100
AcDbRegAppTableRecord
  2
ACAD
 70
     0
  0
APPID
  5
6B
330
9
100
AcDbSymbolTableRecord
100
AcDbRegAppTableRecord
  2
DCO15
 70
     0
  0
APPID
  5
370
330
9
100
AcDbSymbolTableRecord
100
AcDbRegAppTableRecord
  2
MCAD_NO_VIS
 70
     0
  0
APPID
  5
371
330
9
100
AcDbSymbolTableRecord
100
AcDbRegAppTableRecord
  2
ACAD_TEMP_GRAPHIC
 70
     0
  0
APPID
  5
387
330
9
100
AcDbSymbolTableRecord
100
AcDbRegAppTableRecord
  2
GENIUS_GENSCREG_15
 70
     0
  0
APPID
  5
389
330
9
100
AcDbSymbolTableRecord
100
AcDbRegAppTableRecord
  2
GENIUS_GENODEF_13
 70
     0
  0
APPID
  5
38A
330
9
100
AcDbSymbolTableRecord
100
AcDbRegAppTableRecord
  2
GENIUS_GENOBJ-N-SDF_13
 70
     0
  0
APPID
  5
38B
330
9
100
AcDbSymbolTableRecord
100
AcDbRegAppTableRecord
  2
GENIUS_GENOENT_13
 70
     0
  0
APPID
  5
38C
330
9
100
AcDbSymbolTableRecord
100
AcDbRegAppTableRecord
  2
GENIUS_GENOREF_13
 70
     0
  0
APPID
  5
38D
330
9
100
AcDbSymbolTableRecord
100
AcDbRegAppTableRecord
  2
GENIUS_GENOLIS_13
 70
     0
  0
APPID
  5
6CE
330
9
100
AcDbSymbolTableRecord
100
AcDbRegAppTableRecord
  2
MED_PRIMTYPE
 70
     0
  0
ENDTAB
  0
TABLE
  2
DIMSTYLE
  5
A
330
0
100
AcDbSymbolTable
 70
     1
  0
DIMSTYLE
105
2FDC
102
{ACAD_REACTORS
330
85ED
330
86B8
330
86DC
330
8770
330
8762
330
87BE
330
883A
330
884E
330
8971
330
897F
330
89B5
330
89DF
330
8A34
330
8ABC
330
8C05
330
8BF2
330
8BB9
330
8BC2
330
8BC5
330
8BC4
330
8B83
330
8BE5
330
8BDB
330
8BBB
330
8B84
330
8BA5
330
8B8B
330
8B8E
330
8B92
330
8EA3
330
8EBB
102
}
330
A
100
AcDbSymbolTableRecord
100
AcDbDimStyleTableRecord
  2
SCHNEIDERELECTRIC
 70
     0
  3

  4

  5
SEARROW
  6

  7

 40
0.0
 41
0.07
 42
0.0625
 43
0.38
 44
0.0625
 45
0.001
 46
0.0
 47
0.0
 48
0.0
140
0.1
141
0.09
142
0.0
143
25.4
144
1.0
145
0.0
146
1.0
147
0.04
 71
     0
 72
     0
 73
     1
 74
     1
 75
     0
 76
     0
 77
     0
 78
     4
170
     0
171
     1
172
     0
173
     0
174
     0
175
     0
176
   256
177
   256
178
   256
270
     2
271
     2
272
     2
273
     2
274
     1
340
36
275
     0
280
     0
281
     0
282
     0
283
     1
284
     0
285
     0
286
     0
287
     3
288
     0
  0
ENDTAB
  0
TABLE
  2
BLOCK_RECORD
  5
1
330
0
100
AcDbSymbolTable
 70
    35
  0
BLOCK_RECORD
  5
1F
102
{ACAD_XDICTIONARY
360
73
102
}
330
1
100
AcDbSymbolTableRecord
100
AcDbBlockTableRecord
  2
*MODEL_SPACE
  0
BLOCK_RECORD
  5
1B
102
{ACAD_XDICTIONARY
360
75
102
}
330
1
100
AcDbSymbolTableRecord
100
AcDbBlockTableRecord
  2
*PAPER_SPACE
  0
BLOCK_RECORD
  5
783
330
1
100
AcDbSymbolTableRecord
100
AcDbBlockTableRecord
  2
NEWLAYERS
1001
ACAD
1000
DesignCenter Data
1002
{
1070
     1
1070
     1
1002
}
  0
BLOCK_RECORD
  5
841
330
1
100
AcDbSymbolTableRecord
100
AcDbBlockTableRecord
  2
LOGO-PAD
1001
ACAD
1000
DesignCenter Data
1002
{
1070
     1
1070
     1
1002
}
  0
BLOCK_RECORD
  5
AE5
330
1
100
AcDbSymbolTableRecord
100
AcDbBlockTableRecord
  2
TITLE-PAD
1001
ACAD
1000
DesignCenter Data
1002
{
1070
     1
1070
     1
1002
}
  0
BLOCK_RECORD
  5
1DBB
330
1
100
AcDbSymbolTableRecord
100
AcDbBlockTableRecord
  2
OEM-NOTES
1001
ACAD
1000
DesignCenter Data
1002
{
1070
     1
1070
     1
1002
}
  0
BLOCK_RECORD
  5
2FD7
330
1
100
AcDbSymbolTableRecord
100
AcDbBlockTableRecord
  2
SEARROW
1001
ACAD
1000
DesignCenter Data
1002
{
1070
     1
1070
     1
1002
}
  0
BLOCK_RECORD
  5
85EE
330
1
100
AcDbSymbolTableRecord
100
AcDbBlockTableRecord
  2
*D5
  0
BLOCK_RECORD
  5
86B9
330
1
100
AcDbSymbolTableRecord
100
AcDbBlockTableRecord
  2
*D6
  0
BLOCK_RECORD
  5
86DD
330
1
100
AcDbSymbolTableRecord
100
AcDbBlockTableRecord
  2
*D7
  0
BLOCK_RECORD
  5
8763
330
1
100
AcDbSymbolTableRecord
100
AcDbBlockTableRecord
  2
*D8
  0
BLOCK_RECORD
  5
8771
330
1
100
AcDbSymbolTableRecord
100
AcDbBlockTableRecord
  2
*D9
  0
BLOCK_RECORD
  5
87BF
330
1
100
AcDbSymbolTableRecord
100
AcDbBlockTableRecord
  2
*D10
  0
BLOCK_RECORD
  5
883B
330
1
100
AcDbSymbolTableRecord
100
AcDbBlockTableRecord
  2
*D11
  0
BLOCK_RECORD
  5
884F
330
1
100
AcDbSymbolTableRecord
100
AcDbBlockTableRecord
  2
*D12
  0
BLOCK_RECORD
  5
8972
330
1
100
AcDbSymbolTableRecord
100
AcDbBlockTableRecord
  2
*D13
  0
BLOCK_RECORD
  5
8980
330
1
100
AcDbSymbolTableRecord
100
AcDbBlockTableRecord
  2
*D14
  0
BLOCK_RECORD
  5
89B6
330
1
100
AcDbSymbolTableRecord
100
AcDbBlockTableRecord
  2
*D15
  0
BLOCK_RECORD
  5
89E0
330
1
100
AcDbSymbolTableRecord
100
AcDbBlockTableRecord
  2
*D16
  0
BLOCK_RECORD
  5
8A35
330
1
100
AcDbSymbolTableRecord
100
AcDbBlockTableRecord
  2
*D17
  0
BLOCK_RECORD
  5
8C1A
330
1
100
AcDbSymbolTableRecord
100
AcDbBlockTableRecord
  2
*D18
  0
BLOCK_RECORD
  5
8C27
330
1
100
AcDbSymbolTableRecord
100
AcDbBlockTableRecord
  2
*D19
  0
BLOCK_RECORD
  5
8C34
330
1
100
AcDbSymbolTableRecord
100
AcDbBlockTableRecord
  2
*D20
  0
BLOCK_RECORD
  5
8C41
330
1
100
AcDbSymbolTableRecord
100
AcDbBlockTableRecord
  2
*D21
  0
BLOCK_RECORD
  5
8C4E
330
1
100
AcDbSymbolTableRecord
100
AcDbBlockTableRecord
  2
*D22
  0
BLOCK_RECORD
  5
8C5B
330
1
100
AcDbSymbolTableRecord
100
AcDbBlockTableRecord
  2
*D23
  0
BLOCK_RECORD
  5
8C68
330
1
100
AcDbSymbolTableRecord
100
AcDbBlockTableRecord
  2
*D24
  0
BLOCK_RECORD
  5
8C75
330
1
100
AcDbSymbolTableRecord
100
AcDbBlockTableRecord
  2
*D25
  0
BLOCK_RECORD
  5
8C83
330
1
100
AcDbSymbolTableRecord
100
AcDbBlockTableRecord
  2
*D26
  0
BLOCK_RECORD
  5
8C8C
330
1
100
AcDbSymbolTableRecord
100
AcDbBlockTableRecord
  2
*D27
  0
BLOCK_RECORD
  5
8C95
330
1
100
AcDbSymbolTableRecord
100
AcDbBlockTableRecord
  2
*D28
  0
BLOCK_RECORD
  5
8CA2
330
1
100
AcDbSymbolTableRecord
100
AcDbBlockTableRecord
  2
*D29
  0
BLOCK_RECORD
  5
8CAF
330
1
100
AcDbSymbolTableRecord
100
AcDbBlockTableRecord
  2
*D30
  0
BLOCK_RECORD
  5
8CBC
330
1
100
AcDbSymbolTableRecord
100
AcDbBlockTableRecord
  2
*D31
  0
BLOCK_RECORD
  5
8CC9
330
1
100
AcDbSymbolTableRecord
100
AcDbBlockTableRecord
  2
*D32
  0
BLOCK_RECORD
  5
8EA4
330
1
100
AcDbSymbolTableRecord
100
AcDbBlockTableRecord
  2
*D33
  0
BLOCK_RECORD
  5
8EBC
330
1
100
AcDbSymbolTableRecord
100
AcDbBlockTableRecord
  2
*D34
  0
ENDTAB
  0
ENDSEC
  0
SECTION
  2
BLOCKS
  0
BLOCK
  5
20
330
1F
100
AcDbEntity
  8
0
100
AcDbBlockBegin
  2
*MODEL_SPACE
 70
     0
 10
0.0
 20
0.0
 30
0.0
  3
*MODEL_SPACE
  1

  0
ENDBLK
  5
21
330
1F
100
AcDbEntity
  8
0
100
AcDbBlockEnd
  0
BLOCK
  5
1C
330
1B
100
AcDbEntity
 67
     1
  8
0
100
AcDbBlockBegin
  2
*PAPER_SPACE
 70
     0
 10
0.0
 20
0.0
 30
0.0
  3
*PAPER_SPACE
  1

  0
ENDBLK
  5
1D
330
1B
100
AcDbEntity
 67
     1
  8
0
100
AcDbBlockEnd
  0
BLOCK
  5
79C
330
783
100
AcDbEntity
  8
0
100
AcDbBlockBegin
  2
NEWLAYERS
 70
     0
 10
0.0
 20
0.0
 30
0.0
  3
NEWLAYERS
  1

  0
LINE
  5
784
330
783
100
AcDbEntity
  8
PHANTOM1
100
AcDbLine
 10
0.264152010466205
 20
0.3394492053544127
 30
0.0
 11
0.264152010466205
 21
0.1923545555598593
 31
0.0
  0
LINE
  5
785
330
783
100
AcDbEntity
  8
PHANTOM2
100
AcDbLine
 10
0.3018880119612959
 20
0.3394492053544127
 30
0.0
 11
0.3018880119612959
 21
0.1923545555598593
 31
0.0
  0
LINE
  5
786
330
783
100
AcDbEntity
  8
PHANTOM3
100
AcDbLine
 10
0.3396240134565005
 20
0.3394492053544127
 30
0.0
 11
0.3396240134565005
 21
0.1923545555598593
 31
0.0
  0
LINE
  5
787
330
783
100
AcDbEntity
  8
DASHDOT2
100
AcDbLine
 10
0.0
 20
0.3394492053544127
 30
0.0
 11
0.0
 21
0.1923545555598593
 31
0.0
  0
LINE
  5
788
330
783
100
AcDbEntity
  8
DASHDOT3
100
AcDbLine
 10
0.0377360014952046
 20
0.3394492053544127
 30
0.0
 11
0.0377360014952046
 21
0.1923545555598593
 31
0.0
  0
LINE
  5
789
330
783
100
AcDbEntity
  8
DIM
100
AcDbLine
 10
0.0754720029902956
 20
0.3394492053544127
 30
0.0
 11
0.0754720029902956
 21
0.1923545555598593
 31
0.0
  0
LINE
  5
78A
330
783
100
AcDbEntity
  8
HIDDEN1
100
AcDbLine
 10
0.1132080044855002
 20
0.3394492053544127
 30
0.0
 11
0.1132080044855002
 21
0.1923545555598593
 31
0.0
  0
LINE
  5
78B
330
783
100
AcDbEntity
  8
HIDDEN2
100
AcDbLine
 10
0.1509440059807048
 20
0.3394492053544127
 30
0.0
 11
0.1509440059807048
 21
0.1923545555598593
 31
0.0
  0
LINE
  5
78C
330
783
100
AcDbEntity
  8
HIDDEN3
100
AcDbLine
 10
0.1886800074757957
 20
0.3394492053544127
 30
0.0
 11
0.1886800074757957
 21
0.1923545555598593
 31
0.0
  0
LINE
  5
78D
330
783
100
AcDbEntity
  8
TEXT1
100
AcDbLine
 10
0.0
 20
0.1470946497945533
 30
0.0
 11
0.0
 21
0.0
 31
0.0
  0
LINE
  5
78E
330
783
100
AcDbEntity
  8
TEXT2
100
AcDbLine
 10
0.0377360014952046
 20
0.1470946497945533
 30
0.0
 11
0.0377360014952046
 21
0.0
 31
0.0
  0
LINE
  5
78F
330
783
100
AcDbEntity
  8
TEXT3
100
AcDbLine
 10
0.0754720029902956
 20
0.1470946497945533
 30
0.0
 11
0.0754720029902956
 21
0.0
 31
0.0
  0
LINE
  5
790
330
783
100
AcDbEntity
  8
TITLEBLOCK
100
AcDbLine
 10
0.1132080044855002
 20
0.1470946497945533
 30
0.0
 11
0.1132080044855002
 21
0.0
 31
0.0
  0
LINE
  5
791
330
783
100
AcDbEntity
  8
VIEWPORT
100
AcDbLine
 10
0.1509440059807048
 20
0.1470946497945533
 30
0.0
 11
0.1509440059807048
 21
0.0
 31
0.0
  0
LINE
  5
792
330
783
100
AcDbEntity
  8
BLOCKS
100
AcDbLine
 10
0.0377360014952046
 20
0.5318037609142721
 30
0.0
 11
0.0377360014952046
 21
0.3847091111197187
 31
0.0
  0
LINE
  5
793
330
783
100
AcDbEntity
  8
0
100
AcDbLine
 10
0.0
 20
0.5318037609142721
 30
0.0
 11
0.0
 21
0.3847091111197187
 31
0.0
  0
LINE
  5
794
330
783
100
AcDbEntity
  8
CENTER1
100
AcDbLine
 10
0.0754720029902956
 20
0.5318037609142721
 30
0.0
 11
0.0754720029902956
 21
0.3847091111197187
 31
0.0
  0
LINE
  5
795
330
783
100
AcDbEntity
  8
CENTER2
100
AcDbLine
 10
0.1132080044855002
 20
0.5318037609142721
 30
0.0
 11
0.1132080044855002
 21
0.3847091111197187
 31
0.0
  0
LINE
  5
796
330
783
100
AcDbEntity
  8
CENTER3
100
AcDbLine
 10
0.1509440059807048
 20
0.5318037609142721
 30
0.0
 11
0.1509440059807048
 21
0.3847091111197187
 31
0.0
  0
LINE
  5
797
330
783
100
AcDbEntity
  8
CONSTRUCTION
100
AcDbLine
 10
0.1886800074757957
 20
0.5318037609142721
 30
0.0
 11
0.1886800074757957
 21
0.3847091111197187
 31
0.0
  0
LINE
  5
798
330
783
100
AcDbEntity
  8
CONTINUOUS1
100
AcDbLine
 10
0.2264160089710003
 20
0.5318037609142721
 30
0.0
 11
0.2264160089710003
 21
0.3847091111197187
 31
0.0
  0
LINE
  5
799
330
783
100
AcDbEntity
  8
CONTINUOUS2
100
AcDbLine
 10
0.264152010466205
 20
0.5318037609142721
 30
0.0
 11
0.264152010466205
 21
0.3847091111197187
 31
0.0
  0
LINE
  5
79A
330
783
100
AcDbEntity
  8
CONTINUOUS3
100
AcDbLine
 10
0.3018880119612959
 20
0.5318037609142721
 30
0.0
 11
0.3018880119612959
 21
0.3847091111197187
 31
0.0
  0
LINE
  5
79B
330
783
100
AcDbEntity
  8
DASHDOT1
100
AcDbLine
 10
0.3396240134565005
 20
0.5318037609142721
 30
0.0
 11
0.3396240134565005
 21
0.3847091111197187
 31
0.0
  0
ENDBLK
  5
79D
330
783
100
AcDbEntity
  8
0
100
AcDbBlockEnd
  0
BLOCK
  5
852
330
841
100
AcDbEntity
  8
0
100
AcDbBlockBegin
  2
LOGO-PAD
 70
     0
 10
0.0
 20
0.0
 30
0.0
  3
LOGO-PAD
  1

  0
HATCH
  5
842
330
841
100
AcDbEntity
  8
TITLEBLOCK
 62
     0
100
AcDbHatch
 10
0.0
 20
0.0
 30
0.0
210
0.0
220
0.0
230
1.0
  2
SOLID
 70
     1
 71
     0
 91
        2
 92
        1
 93
       11
 72
     2
 10
1.203771209334867
 20
0.3650136751459491
 40
0.021562648149145
 50
90.00000747299615
 51
179.9997683268519
 73
     1
 72
     1
 10
1.182208561185898
 20
0.3650137623336376
 11
1.182208392435807
 21
0.2795138227272444
 72
     2
 10
1.203771079023129
 20
0.2795136821032751
 40
0.0215626865877801
 50
179.9996263378447
 51
269.9998903896797
 73
     1
 72
     1
 10
1.203771037772394
 20
0.2579509955155343
 11
1.330521045577125
 21
0.2579511736405264
 72
     2
 10
1.330521265257171
 20
0.2795136382789064
 40
0.021562464639499
 50
269.9994162661957
 51
311.7040125634689
 73
     1
 72
     1
 10
1.344866398698837
 20
0.2634152834601535
 11
1.352083334663557
 21
0.2579511736405264
 72
     1
 10
1.352083334663557
 20
0.2579511736405264
 11
1.365099386916806
 21
0.2751416404960081
 72
     1
 10
1.365099386916806
 20
0.2751416404960081
 11
1.352083522163621
 21
0.284997066934386
 72
     1
 10
1.352083522163621
 20
0.284997066934386
 11
1.352083690913712
 21
0.3650136723335662
 72
     2
 10
1.330521042764654
 20
0.3650136751460369
 40
0.0215626481490576
 50
359.9999925267666
 51
449.9999925267678
 73
     1
 72
     1
 10
1.330521045577125
 20
0.3865763232950938
 11
1.203771206522485
 21
0.3865763232950938
 97
        0
 92
       16
 93
       10
 72
     2
 10
1.21455271481628
 20
0.3542325202904111
 40
0.0107811520434708
 50
90.00043844291294
 51
179.9999701074038
 73
     1
 72
     1
 10
1.203771562772811
 20
0.3542325259151993
 11
1.203771562772811
 21
0.2902950591455122
 72
     2
 10
1.214552849813946
 20
0.2902948416431456
 40
0.0107812870433294
 50
179.9988441113203
 51
269.9988441346395
 73
     1
 72
     1
 10
1.214552632315967
 20
0.2795135546020104
 11
1.323606134809704
 21
0.2795135546020104
 72
     1
 10
1.323606134809704
 20
0.2795135546020104
 11
1.280867956889135
 21
0.311873265117333
 72
     1
 10
1.280867956889135
 20
0.311873265117333
 11
1.293884009142384
 21
0.3290635557226322
 72
     1
 10
1.293884009142384
 20
0.3290635557226322
 11
1.330521045577125
 21
0.3013240413506308
 72
     1
 10
1.330521045577125
 20
0.3013240413506308
 11
1.330521045577125
 21
0.3542324377902786
 72
     2
 10
1.319739809158772
 20
0.3542324359152127
 40
0.0107812364183532
 50
0.0000099648460607
 51
90.00000996484372
 73
     1
 72
     1
 10
1.319739807283706
 20
0.3650136723335662
 11
1.214552632315967
 21
0.3650136723335662
 97
        0
 75
     0
 76
     1
 98
        1
 10
-7.279586802153931
 20
-0.4081141432880261
  0
HATCH
  5
843
330
841
100
AcDbEntity
  8
TITLEBLOCK
 62
     0
100
AcDbHatch
 10
0.0
 20
0.0
 30
0.0
210
0.0
220
0.0
230
1.0
  2
SOLID
 70
     1
 71
     0
 91
        1
 92
        1
 93
        4
 72
     1
 10
3.703333445713536
 20
0.1990762889281312
 11
1.018147379006204
 21
0.1990762889281312
 72
     1
 10
1.018147379006204
 20
0.1990762889281312
 11
1.018147379006204
 21
0.220706173683743
 72
     1
 10
1.018147379006204
 20
0.220706173683743
 11
3.703333445713536
 21
0.220706173683743
 72
     1
 10
3.703333445713536
 20
0.220706173683743
 11
3.703333445713536
 21
0.1990762889281312
 97
        0
 75
     0
 76
     1
 98
        1
 10
-7.279586802153931
 20
-0.4081141432880261
  0
HATCH
  5
844
330
841
100
AcDbEntity
  8
TITLEBLOCK
 62
     0
100
AcDbHatch
 10
0.0
 20
0.0
 30
0.0
210
0.0
220
0.0
230
1.0
  2
SOLID
 70
     1
 71
     0
 91
        4
 92
        1
 93
        4
 72
     1
 10
0.8306472632318495
 20
0.4814782717956759
 11
0.4556470182475714
 21
0.4814782717956759
 72
     1
 10
0.4556470182475714
 20
0.4814782717956759
 11
0.4556470182475714
 21
0.1064783844396073
 72
     1
 10
0.4556470182475714
 20
0.1064783844396073
 11
0.8306472632318495
 21
0.1064783844396073
 72
     1
 10
0.8306472632318495
 20
0.1064783844396073
 11
0.8306472632318495
 21
0.4814782717956759
 97
        0
 92
        0
 93
       10
 72
     1
 10
0.7368972019857374
 20
0.4177282462416896
 11
0.5193971779121789
 21
0.4177282462416896
 72
     1
 10
0.5193971779121789
 20
0.4177282462416896
 11
0.5193971779121789
 21
0.37460312508514
 72
     1
 10
0.5193971779121789
 20
0.37460312508514
 11
0.5531473465883146
 21
0.37460312508514
 72
     1
 10
0.5531473465883146
 20
0.37460312508514
 11
0.5531473465883146
 21
0.2133535311501431
 72
     1
 10
0.5531473465883146
 20
0.2133535311501431
 11
0.5193971779121789
 21
0.2133535311501431
 72
     1
 10
0.5193971779121789
 20
0.2133535311501431
 11
0.5193971779121789
 21
0.1702282758831428
 72
     1
 10
0.5193971779121789
 20
0.1702282758831428
 11
0.7368972019857374
 21
0.1702282758831428
 72
     1
 10
0.7368972019857374
 20
0.1702282758831428
 11
0.7668970141602749
 21
0.2002283115750982
 72
     1
 10
0.7668970141602749
 20
0.2002283115750982
 11
0.7668970141602749
 21
0.3877281658462506
 72
     1
 10
0.7668970141602749
 20
0.3877281658462506
 11
0.7368972019857374
 21
0.4177282462416896
 97
        0
 92
       16
 93
        4
 72
     1
 10
0.7987720492890098
 20
0.4496031025563197
 11
0.4875220533764768
 21
0.4496031025563197
 72
     1
 10
0.4875220533764768
 20
0.4496031025563197
 11
0.4875220533764768
 21
0.1383533301613751
 72
     1
 10
0.4875220533764768
 20
0.1383533301613751
 11
0.7987720492890098
 21
0.1383533301613751
 72
     1
 10
0.7987720492890098
 20
0.1383533301613751
 11
0.7987720492890098
 21
0.4496031025563197
 97
        0
 92
        0
 93
        4
 72
     1
 10
0.5962724677448641
 20
0.37460312508514
 11
0.5962724677448641
 21
0.2133535311501431
 72
     1
 10
0.5962724677448641
 20
0.2133535311501431
 11
0.7237719824106926
 21
0.2133535311501431
 72
     1
 10
0.7237719824106926
 20
0.2133535311501431
 11
0.7237719824106926
 21
0.37460312508514
 72
     1
 10
0.7237719824106926
 20
0.37460312508514
 11
0.5962724677448641
 21
0.37460312508514
 97
        0
 75
     0
 76
     1
 98
        1
 10
-7.279586802153931
 20
-0.313212194787444
  0
HATCH
  5
845
330
841
100
AcDbEntity
  8
TITLEBLOCK
 62
     0
100
AcDbHatch
 10
0.0
 20
0.0
 30
0.0
210
0.0
220
0.0
230
1.0
  2
SOLID
 70
     1
 71
     0
 91
        1
 92
        1
 93
       26
 72
     1
 10
1.050490193885575
 20
0.3650136723335662
 11
1.138990457951802
 21
0.3650136723335662
 72
     2
 10
1.138990281703138
 20
0.3542326140418093
 40
0.0107810582931976
 50
270.0009366709926
 51
360.0009366862294
 73
     0
 72
     1
 10
1.149771339994895
 20
0.3542324377902786
 11
1.171333797831589
 21
0.3542324377902786
 72
     1
 10
1.171333797831589
 20
0.3542324377902786
 11
1.171333797831589
 21
0.3650136723335662
 72
     2
 10
1.149771243432702
 20
0.365013768896207
 40
0.0215625543991033
 50
359.9997434148255
 51
449.9997434160159
 73
     1
 72
     1
 10
1.149771339994895
 20
0.3865763232950938
 11
1.039708786842066
 21
0.3865763232950938
 72
     2
 10
1.039709408398413
 20
0.3650142939052909
 40
0.0215620293987615
 50
90.00165163282177
 51
180.0014125206716
 73
     1
 72
     1
 10
1.018147379006204
 20
0.3650137623336376
 11
1.018147379006204
 21
0.3334199129435318
 72
     2
 10
1.039709363397143
 20
0.3334193363730153
 40
0.0215619843986475
 50
179.9984679027414
 51
269.9984679437668
 73
     1
 72
     1
 10
1.039708786842066
 20
0.3118573519820755
 11
1.138990457951802
 21
0.311857620107139
 72
     2
 10
1.138990280765661
 20
0.3010765608779043
 40
0.0107810592306907
 50
270.0009416531222
 51
360.0009416684906
 73
     0
 72
     1
 10
1.149771339994895
 20
0.3010763836888712
 11
1.149771508744986
 21
0.2902949691454408
 72
     2
 10
1.138990231076649
 20
0.2902948322713164
 40
0.0107812776692067
 50
359.9992725992319
 51
449.9997907459082
 73
     0
 72
     1
 10
1.138990270451738
 20
0.279513554602181
 11
1.050490193885575
 21
0.2795135546020104
 72
     2
 10
1.05049014888543
 20
0.2902951041454384
 40
0.0107815495435218
 50
89.99976085826782
 51
179.9997608594354
 73
     0
 72
     1
 10
1.039708599342002
 20
0.2902950591455122
 11
1.018147379006204
 21
0.2902950591455122
 72
     1
 10
1.018147379006204
 20
0.2902950591455122
 11
1.018147379006204
 21
0.2795138227272444
 72
     2
 10
1.039709273392517
 20
0.2795130680345569
 40
0.0215618943995203
 50
179.9979945776083
 51
269.9987071039827
 73
     1
 72
     1
 10
1.039708786842066
 20
0.2579511736405264
 11
1.149771339994895
 21
0.2579511736405264
 72
     2
 10
1.149771378432784
 20
0.2795135930396681
 40
0.0215624193991759
 50
269.9998978626289
 51
359.9996636967671
 73
     1
 72
     1
 10
1.171333797831589
 20
0.2795134664769192
 11
1.171333797831589
 21
0.3114825579869829
 72
     2
 10
1.149771333432362
 20
0.3114825645494808
 40
0.0215624643992288
 50
359.9999825621309
 51
449.9999825620359
 73
     1
 72
     1
 10
1.149771339994895
 20
0.3330450289487088
 11
1.050490193885575
 21
0.3330447608234748
 72
     2
 10
1.050490103885701
 20
0.3438262653667981
 40
0.0107815045436989
 50
89.99952171675776
 51
179.9999900368059
 73
     0
 72
     1
 10
1.039708599342002
 20
0.3438262634919964
 11
1.039708786842066
 21
0.3542325259151993
 72
     2
 10
1.050490107634269
 20
0.3542323515402983
 40
0.0107813207936133
 50
180.0009266903443
 51
270.0004583701697
 73
     0
 97
        0
 75
     0
 76
     1
 98
        1
 10
-7.279586802153931
 20
-0.4081141432880261
  0
HATCH
  5
846
330
841
100
AcDbEntity
  8
TITLEBLOCK
 62
     0
100
AcDbHatch
 10
0.0
 20
0.0
 30
0.0
210
0.0
220
0.0
230
1.0
  2
SOLID
 70
     1
 71
     0
 91
        1
 92
        1
 93
       18
 72
     2
 10
2.471082802883087
 20
0.3650137595211706
 40
0.021562563774099
 50
180.0000074732525
 51
269.9997683261728
 73
     0
 72
     1
 10
2.471082715695484
 20
0.3865763232950938
 11
2.586957622645552
 21
0.3865763232950938
 72
     2
 10
2.586957713583391
 20
0.3650135813961111
 40
0.0215627418991744
 50
269.9997583630888
 51
359.999758364108
 73
     0
 72
     1
 10
2.608520455482373
 20
0.3650136723335662
 11
2.608520455482373
 21
0.3542324377902786
 72
     1
 10
2.608520455482373
 20
0.3542324377902786
 11
2.586957622645552
 21
0.3542324377902786
 72
     2
 10
2.576176208103625
 20
0.3542322577916381
 40
0.0107814145434302
 50
0.0009565685814303
 51
90.00095658455173
 73
     1
 72
     1
 10
2.576176028101979
 20
0.3650136723335662
 11
2.481864141488966
 21
0.3650136723335662
 72
     2
 10
2.481864045863444
 20
0.3542323421656055
 40
0.0107813301683848
 50
89.99949181235312
 51
179.9994918168631
 73
     1
 72
     1
 10
2.471082715695484
 20
0.3542324377902786
 11
2.471082715695484
 21
0.2902950591455122
 72
     2
 10
2.481864090863785
 20
0.2902951097704553
 40
0.0107813751684203
 50
180.0002690376259
 51
270.0002690388874
 73
     1
 72
     1
 10
2.481864141488966
 20
0.2795137346021532
 11
2.576176028101979
 21
0.2795135546020104
 72
     2
 10
2.576176073102679
 20
0.2902951041456356
 40
0.010781549543719
 50
269.9997608553225
 51
359.9992825760937
 73
     1
 72
     1
 10
2.586957622645552
 20
0.2902949691454408
 11
2.608520455482373
 21
0.2902950591455122
 72
     1
 10
2.608520455482373
 20
0.2902950591455122
 11
2.608520099232048
 21
0.2795134664769192
 72
     2
 10
2.586957670458414
 20
0.2795136024145366
 40
0.0215624287740632
 50
0.0003612140281018
 51
90.00012704854281
 73
     0
 72
     1
 10
2.586957622645552
 20
0.2579511736405264
 11
2.471082715695484
 21
0.2579511736405264
 72
     2
 10
2.471082667882924
 20
0.2795136024144634
 40
0.02156242877399
 50
89.99987295225965
 51
179.9998729525419
 73
     0
 72
     1
 10
2.449520239108988
 20
0.2795135546020104
 11
2.449520239108988
 21
0.3650137623336376
 97
        0
 75
     0
 76
     1
 98
        1
 10
-7.279586802153931
 20
-0.4081141432880261
  0
HATCH
  5
847
330
841
100
AcDbEntity
  8
TITLEBLOCK
 62
     0
100
AcDbHatch
 10
0.0
 20
0.0
 30
0.0
210
0.0
220
0.0
230
1.0
  2
SOLID
 70
     1
 71
     0
 91
        1
 92
        1
 93
       12
 72
     1
 10
2.026708344139745
 20
0.3865765014202565
 11
1.890208311215626
 21
0.3865765014202565
 72
     1
 10
1.890208311215626
 20
0.3865765014202565
 11
1.890208311215626
 21
0.2579511736405264
 72
     1
 10
1.890208311215626
 20
0.2579511736405264
 11
2.026708344139745
 21
0.2579511736405264
 72
     1
 10
2.026708344139745
 20
0.2579511736405264
 11
2.026708344139745
 21
0.2795135546020104
 72
     1
 10
2.026708344139745
 20
0.2795135546020104
 11
1.911770600302059
 21
0.2795135546020104
 72
     1
 10
1.911770600302059
 20
0.2795135546020104
 11
1.911770600302059
 21
0.3114825579869829
 72
     1
 10
1.911770600302059
 20
0.3114825579869829
 11
2.026708344139745
 21
0.3114825579869829
 72
     1
 10
2.026708344139745
 20
0.3114825579869829
 11
2.026708344139745
 21
0.333044848948566
 72
     1
 10
2.026708344139745
 20
0.333044848948566
 11
1.911770600302059
 21
0.333044848948566
 72
     1
 10
1.911770600302059
 20
0.333044848948566
 11
1.911770600302059
 21
0.3650136723335662
 72
     1
 10
1.911770600302059
 20
0.3650136723335662
 11
2.026708344139745
 21
0.3650136723335662
 72
     1
 10
2.026708344139745
 20
0.3650136723335662
 11
2.026708344139745
 21
0.3865765014202565
 97
        0
 75
     0
 76
     1
 98
        1
 10
-7.279586802153931
 20
-0.4081141432880261
  0
HATCH
  5
848
330
841
100
AcDbEntity
  8
TITLEBLOCK
 62
     0
100
AcDbHatch
 10
0.0
 20
0.0
 30
0.0
210
0.0
220
0.0
230
1.0
  2
SOLID
 70
     1
 71
     0
 91
        2
 92
        1
 93
        8
 72
     1
 10
1.614830743814064
 20
0.3865765014202565
 11
1.531145595393223
 21
0.2579509955155343
 72
     1
 10
1.531145595393223
 20
0.2579509955155343
 11
1.556870855949323
 21
0.2579511736405264
 72
     1
 10
1.556870855949323
 20
0.2579511736405264
 11
1.570898996363819
 21
0.2795135546020104
 72
     1
 10
1.570898996363819
 20
0.2795135546020104
 11
1.673830432358027
 21
0.2795135546020104
 72
     1
 10
1.673830432358027
 20
0.2795135546020104
 11
1.687858760272586
 21
0.2579514417655899
 72
     1
 10
1.687858760272586
 20
0.2579514417655899
 11
1.713583120827973
 21
0.2579514417655899
 72
     1
 10
1.713583120827973
 20
0.2579514417655899
 11
1.629898141157394
 21
0.3865765014202565
 72
     1
 10
1.629898141157394
 20
0.3865765014202565
 11
1.614830743814064
 21
0.3865765014202565
 97
        0
 92
       16
 93
        3
 72
     1
 10
1.622364536235675
 20
0.3586169575295115
 11
1.659801223192726
 21
0.3010763836888712
 72
     1
 10
1.659801223192726
 20
0.3010763836888712
 11
1.584928205528949
 21
0.3010762055637086
 72
     1
 10
1.584928205528949
 20
0.3010762055637086
 11
1.622364348735612
 21
0.3586165994043766
 97
        0
 75
     0
 76
     1
 98
        1
 10
-7.279586802153931
 20
-0.4081141432880261
  0
HATCH
  5
849
330
841
100
AcDbEntity
  8
TITLEBLOCK
 62
     0
100
AcDbHatch
 10
0.0
 20
0.0
 30
0.0
210
0.0
220
0.0
230
1.0
  2
SOLID
 70
     1
 71
     0
 91
        1
 92
        1
 93
       12
 72
     1
 10
1.392021104504447
 20
0.3865765014202565
 11
1.370458815418015
 21
0.3865765014202565
 72
     1
 10
1.370458815418015
 20
0.3865765014202565
 11
1.370458627917951
 21
0.2795138227272444
 72
     2
 10
1.39202114575308
 20
0.2795135133528436
 40
0.0215625178373483
 50
179.999177932392
 51
269.9998903944058
 73
     1
 72
     1
 10
1.392021104504447
 20
0.2579509955155343
 11
1.509583287556818
 21
0.2579511736405264
 72
     2
 10
1.509583335369764
 20
0.2795136024146219
 40
0.0215624287741484
 50
269.9998729512306
 51
359.9996387857453
 73
     1
 72
     1
 10
1.531145764143484
 20
0.2795134664769192
 11
1.531146120393639
 21
0.3865765014202565
 72
     1
 10
1.531146120393639
 20
0.3865765014202565
 11
1.509583287556818
 21
0.3865765014202565
 72
     1
 10
1.509583287556818
 20
0.3865765014202565
 11
1.509583287556818
 21
0.2902950591455122
 72
     2
 10
1.498801916139266
 20
0.290294926019563
 40
0.0107813714183743
 50
359.9992925246018
 51
449.9992925333428
 73
     0
 72
     1
 10
1.49880204926357
 20
0.2795135546020104
 11
1.402802342797695
 21
0.2795135546020104
 72
     2
 10
1.402802382172719
 20
0.2902950197703451
 40
0.0107814651684066
 50
90.00020925010334
 51
180.0002092508632
 73
     0
 72
     1
 10
1.392020917004384
 20
0.2902950591455122
 11
1.392021104504447
 21
0.3865765014202565
 97
        0
 75
     0
 76
     1
 98
        1
 10
-7.279586802153931
 20
-0.4081141432880261
  0
HATCH
  5
84A
330
841
100
AcDbEntity
  8
TITLEBLOCK
 62
     0
100
AcDbHatch
 10
0.0
 20
0.0
 30
0.0
210
0.0
220
0.0
230
1.0
  2
SOLID
 70
     1
 71
     0
 91
        2
 92
        1
 93
       13
 72
     2
 10
1.851958289039648
 20
0.2899198104641797
 40
0.0215625675244637
 50
0.0002565813902296
 51
90.00070498518821
 73
     1
 72
     2
 10
1.851958289040149
 20
0.3330449455099156
 40
0.0215625675245372
 50
269.9992950134807
 51
359.9995092535441
 73
     1
 72
     1
 10
1.873520856563896
 20
0.3330447608234748
 11
1.873520856563896
 21
0.3650136657708798
 72
     2
 10
1.851957894958188
 20
0.3650135398162329
 40
0.0215629616060761
 50
0.0003346789653151
 51
89.99920945081219
 73
     1
 72
     1
 10
1.851958192477166
 20
0.3865765014202565
 11
1.720333350237904
 21
0.3865765014202565
 72
     1
 10
1.720333350237904
 20
0.3865765014202565
 11
1.720333350237904
 21
0.2579511736405264
 72
     1
 10
1.720333350237904
 20
0.2579511736405264
 11
1.741896183074725
 21
0.2579511736405264
 72
     1
 10
1.741896183074725
 20
0.2579511736405264
 11
1.741896183074725
 21
0.3007013215688856
 72
     1
 10
1.741896183074725
 20
0.3007013215688856
 11
1.841176785433827
 21
0.3007013215688856
 72
     2
 10
1.841176693559081
 20
0.2899201789011263
 40
0.0107811426681508
 50
270.0004882631974
 51
360.0004882673548
 73
     0
 72
     1
 10
1.851957836226841
 20
0.289920087025598
 11
1.851958192477166
 21
0.2579511736405264
 72
     1
 10
1.851958192477166
 20
0.2579511736405264
 11
1.873520856563896
 21
0.2579511736405264
 72
     1
 10
1.873520856563896
 20
0.2579511736405264
 11
1.873520856563896
 21
0.2899199070254552
 97
        0
 92
       16
 93
        6
 72
     2
 10
1.841176693559081
 20
0.3542325296658069
 40
0.0107811426681508
 50
270.0004882631974
 51
360.0004882673548
 73
     0
 72
     1
 10
1.851957836226841
 20
0.3542324377902786
 11
1.851958192477166
 21
0.333044848948566
 72
     2
 10
1.841176871684197
 20
0.333044935198247
 40
0.0107813207933138
 50
0.0004583615308307
 51
90.00045836519477
 73
     0
 72
     1
 10
1.841176785433827
 20
0.3222636144052784
 11
1.741896183074725
 21
0.3222638825303419
 72
     1
 10
1.741896183074725
 20
0.3222638825303419
 11
1.741896183074725
 21
0.3650136723335662
 72
     1
 10
1.741896183074725
 20
0.3650136723335662
 11
1.841176785433827
 21
0.3650136723335662
 97
        0
 75
     0
 76
     1
 98
        1
 10
-7.279586802153931
 20
-0.4081141432880261
  0
HATCH
  5
84B
330
841
100
AcDbEntity
  8
TITLEBLOCK
 62
     0
100
AcDbHatch
 10
0.0
 20
0.0
 30
0.0
210
0.0
220
0.0
230
1.0
  2
SOLID
 70
     1
 71
     0
 91
        2
 92
        1
 93
       10
 72
     1
 10
2.168832611988261
 20
0.3650136723335662
 11
2.168832611988261
 21
0.2795135546021492
 72
     1
 10
2.168832611988261
 20
0.2795135546021492
 11
2.148020079641632
 21
0.2795135546021492
 72
     1
 10
2.148020079641632
 20
0.2795135546021492
 11
2.148020079641632
 21
0.2579511736406499
 72
     1
 10
2.148020079641632
 20
0.2579511736406499
 11
2.314895263659607
 21
0.2579511736406499
 72
     2
 10
2.314895311472477
 20
0.2795136024147182
 40
0.0215624287741214
 50
269.9998729514336
 51
359.9996387859474
 73
     1
 72
     1
 10
2.336457740246171
 20
0.2795134664770916
 11
2.336457740246171
 21
0.3650136723335662
 72
     2
 10
2.314895087410214
 20
0.3650138485844006
 40
0.0215626528366775
 50
359.9995316703829
 51
449.999531674211
 73
     1
 72
     1
 10
2.314895263659607
 20
0.386576501420358
 11
2.148020079641632
 21
0.386576501420358
 72
     1
 10
2.148020079641632
 20
0.386576501420358
 11
2.148020079641632
 21
0.3650136723335662
 72
     1
 10
2.148020079641632
 20
0.3650136723335662
 11
2.168832611988261
 21
0.3650136723335662
 97
        0
 92
       16
 93
        6
 72
     1
 10
2.190395257324933
 20
0.3650136723335662
 11
2.304113856616218
 21
0.3650136723335662
 72
     2
 10
2.304113942866619
 20
0.3542323515405775
 40
0.0107813207933337
 50
269.9995416346447
 51
359.9995416383139
 73
     0
 72
     1
 10
2.314895263659607
 20
0.3542324377902877
 11
2.314895263659607
 21
0.2902949691455452
 72
     2
 10
2.304113807866077
 20
0.2902950103956483
 40
0.0107814557936096
 50
0.0002192149982456
 51
89.99974092762393
 73
     0
 72
     1
 10
2.304113856616218
 20
0.2795135546021492
 11
2.190395257324933
 21
0.2795135546021492
 72
     1
 10
2.190395257324933
 20
0.2795135546021492
 11
2.190395257324933
 21
0.3650136723335662
 97
        0
 75
     0
 76
     1
 98
        1
 10
-7.279586802153931
 20
-0.4081141432880261
  0
HATCH
  5
84C
330
841
100
AcDbEntity
  8
TITLEBLOCK
 62
     0
100
AcDbHatch
 10
0.0
 20
0.0
 30
0.0
210
0.0
220
0.0
230
1.0
  2
SOLID
 70
     1
 71
     0
 91
        2
 92
        1
 93
        8
 72
     1
 10
3.241392303571654
 20
0.3865765014202565
 11
3.157707226761072
 21
0.2579509955155343
 72
     1
 10
3.157707226761072
 20
0.2579509955155343
 11
3.183432299816939
 21
0.2579511736405264
 72
     1
 10
3.183432299816939
 20
0.2579511736405264
 11
3.197460983981823
 21
0.2795133764768478
 72
     1
 10
3.197460983981823
 20
0.2795133764768478
 11
3.30039082622498
 21
0.2795135546020104
 72
     1
 10
3.30039082622498
 20
0.2795135546020104
 11
3.314419679139785
 21
0.2579514417655899
 72
     1
 10
3.314419679139785
 20
0.2579514417655899
 11
3.340144583445731
 21
0.2579511736405264
 72
     1
 10
3.340144583445731
 20
0.2579511736405264
 11
3.256459603774981
 21
0.3865765014202565
 72
     1
 10
3.256459603774981
 20
0.3865765014202565
 11
3.241392303571654
 21
0.3865765014202565
 97
        0
 92
       16
 93
        3
 72
     1
 10
3.248925740352245
 20
0.358616778466603
 11
3.211489480646473
 21
0.3010762055637086
 72
     1
 10
3.211489480646473
 20
0.3010762055637086
 11
3.28636178580994
 21
0.3010763836888712
 72
     1
 10
3.28636178580994
 20
0.3010763836888712
 11
3.248925740352245
 21
0.358616778466603
 97
        0
 75
     0
 76
     1
 98
        1
 10
-7.279586802153931
 20
-0.4081141432880261
  0
HATCH
  5
84D
330
841
100
AcDbEntity
  8
TITLEBLOCK
 62
     0
100
AcDbHatch
 10
0.0
 20
0.0
 30
0.0
210
0.0
220
0.0
230
1.0
  2
SOLID
 70
     1
 71
     0
 91
        1
 92
        1
 93
       13
 72
     1
 10
2.838488736968525
 20
0.3865765014202565
 11
2.806145209588674
 21
0.3865765014202565
 72
     1
 10
2.806145209588674
 20
0.3865765014202565
 11
2.806145209588674
 21
0.2579511736405264
 72
     1
 10
2.806145209588674
 20
0.2579511736405264
 11
2.827707667425368
 21
0.2579511736405264
 72
     1
 10
2.827707667425368
 20
0.2579511736405264
 11
2.827707667425368
 21
0.3640633654626753
 72
     1
 10
2.827707667425368
 20
0.3640633654626753
 11
2.899718420719221
 21
0.2579514417655899
 72
     1
 10
2.899718420719221
 20
0.2579514417655899
 11
2.922570860648686
 21
0.2579511736405264
 72
     1
 10
2.922570860648686
 20
0.2579511736405264
 11
2.994582138942956
 21
0.3640642598382782
 72
     1
 10
2.994582138942956
 20
0.3640642598382782
 11
2.994582138942956
 21
0.2579511736405264
 72
     1
 10
2.994582138942956
 20
0.2579511736405264
 11
3.016144596779479
 21
0.2579511736405264
 72
     1
 10
3.016144596779479
 20
0.2579511736405264
 11
3.016144596779479
 21
0.3865765014202565
 72
     1
 10
3.016144596779479
 20
0.3865765014202565
 11
2.983801425649954
 21
0.3865765014202565
 72
     1
 10
2.983801425649954
 20
0.3865765014202565
 11
2.911144640683954
 21
0.2795135546020104
 72
     1
 10
2.911144640683954
 20
0.2795135546020104
 11
2.838488380718199
 21
0.3865765014202565
 97
        0
 75
     0
 76
     1
 98
        1
 10
-7.279586802153931
 20
-0.4081141432880261
  0
HATCH
  5
84E
330
841
100
AcDbEntity
  8
TITLEBLOCK
 62
     0
100
AcDbHatch
 10
0.0
 20
0.0
 30
0.0
210
0.0
220
0.0
230
1.0
  2
SOLID
 70
     1
 71
     0
 91
        2
 92
        1
 93
        8
 72
     1
 10
2.79358243888161
 20
0.2795134664769192
 11
2.793582795131936
 21
0.3650136723335662
 72
     2
 10
2.772020240733041
 20
0.3650137688961994
 40
0.0215625543991104
 50
359.9997434148459
 51
449.999743415997
 73
     1
 72
     1
 10
2.772020337295241
 20
0.3865763232950938
 11
2.640957676673206
 21
0.3865763232950938
 72
     2
 10
2.640957763860811
 20
0.3650137595211699
 40
0.0215625637741002
 50
90.00023167383188
 51
179.9999925267453
 73
     1
 72
     1
 10
2.61939520008671
 20
0.3650137623336376
 11
2.61939520008671
 21
0.2795135546020104
 72
     2
 10
2.640957628860649
 20
0.2795136024144641
 40
0.0215624287739915
 50
180.0001270474597
 51
270.0001270477355
 73
     1
 72
     1
 10
2.640957676673206
 20
0.2579511736405264
 11
2.772020337295241
 21
0.2579511736405264
 72
     2
 10
2.772020197607671
 20
0.2795134149140743
 40
0.0215622412740004
 50
270.000371181646
 51
360.000137014207
 73
     1
 97
        0
 92
       16
 93
        8
 72
     2
 10
2.651738913091431
 20
0.3542324359149649
 40
0.0107812364186015
 50
89.9999900344766
 51
179.999521702949
 73
     1
 72
     1
 10
2.640957676673206
 20
0.3542325259151993
 11
2.640957676673206
 21
0.2902950591455122
 72
     2
 10
2.651738958091508
 20
0.2902950160204556
 40
0.010781281418388
 50
179.9997708172488
 51
269.9997708181704
 73
     1
 72
     1
 10
2.651738914966625
 20
0.2795137346021532
 11
2.761238742751839
 21
0.2795135546020104
 72
     2
 10
2.761238956501978
 20
0.2902951041442614
 40
0.0107815495443698
 50
269.9988640797126
 51
359.9992825833961
 73
     1
 72
     1
 10
2.772020506045503
 20
0.2902949691454408
 11
2.772020337295241
 21
0.3542324377902786
 72
     2
 10
2.761239007127366
 20
0.3542323421656908
 40
0.0107813301682991
 50
0.0005081826837109
 51
90.00050818719378
 73
     1
 72
     1
 10
2.76123891150193
 20
0.3650136723335662
 11
2.651738914966625
 21
0.3650136723335662
 97
        0
 75
     0
 76
     1
 98
        1
 10
-7.279586802153931
 20
-0.4081141432880261
  0
HATCH
  5
84F
330
841
100
AcDbEntity
  8
TITLEBLOCK
 62
     0
100
AcDbHatch
 10
0.0
 20
0.0
 30
0.0
210
0.0
220
0.0
230
1.0
  2
SOLID
 70
     1
 71
     0
 91
        2
 92
        1
 93
        8
 72
     2
 10
3.162769048174736
 20
0.3650134554401196
 40
0.0215630459811904
 50
270.0005663490367
 51
359.9994236862867
 73
     0
 72
     1
 10
3.184332094154836
 20
0.3650136723335662
 11
3.184332094154836
 21
0.3222638825303419
 72
     2
 10
3.162769397256125
 20
0.3222640184675962
 40
0.0215626968991391
 50
0.0003612085718475
 51
90.00036121084693
 73
     0
 72
     1
 10
3.162769261318015
 20
0.3007013215688856
 11
3.052707420665665
 21
0.3007013215688856
 72
     1
 10
3.052707420665665
 20
0.3007013215688856
 11
3.052707420665665
 21
0.2579511736405264
 72
     1
 10
3.052707420665665
 20
0.2579511736405264
 11
3.031144250328662
 21
0.2579511736405264
 72
     1
 10
3.031144250328662
 20
0.2579511736405264
 11
3.031144250328662
 21
0.3865765014202565
 72
     1
 10
3.031144250328662
 20
0.3865765014202565
 11
3.162769261318015
 21
0.3865765014202565
 97
        0
 92
       16
 93
        6
 72
     2
 10
3.151988118650169
 20
0.3542325296657216
 40
0.0107811426682361
 50
270.0004882627443
 51
360.0004882669015
 73
     0
 72
     1
 10
3.162769261318015
 20
0.3542324377902786
 11
3.162769261318015
 21
0.333044848948566
 72
     2
 10
3.151988118650169
 20
0.333044757073123
 40
0.0107811426682367
 50
359.9995117330984
 51
449.9995117372556
 73
     0
 72
     1
 10
3.15198821052483
 20
0.3222636144052784
 11
3.052707420665665
 21
0.3222638825303419
 72
     1
 10
3.052707420665665
 20
0.3222638825303419
 11
3.052707420665665
 21
0.3650136723335662
 72
     1
 10
3.052707420665665
 20
0.3650136723335662
 11
3.15198821052483
 21
0.3650136723335662
 97
        0
 75
     0
 76
     1
 98
        1
 10
-7.279586802153931
 20
-0.4081141432880261
  0
HATCH
  5
850
330
841
100
AcDbEntity
  8
TITLEBLOCK
 62
     0
100
AcDbHatch
 10
0.0
 20
0.0
 30
0.0
210
0.0
220
0.0
230
1.0
  2
SOLID
 70
     1
 71
     0
 91
        1
 92
        1
 93
        9
 72
     1
 10
3.556847887515953
 20
0.3865763232950938
 11
3.525206566844968
 21
0.3865765014202565
 72
     1
 10
3.525206566844968
 20
0.3865765014202565
 11
3.60348814923547
 21
0.3136817019238036
 72
     1
 10
3.60348814923547
 20
0.3136817019238036
 11
3.603486349234383
 21
0.2579511736405264
 72
     1
 10
3.603486349234383
 20
0.2579511736405264
 11
3.625050607072164
 21
0.2579511736405264
 72
     1
 10
3.625050607072164
 20
0.2579511736405264
 11
3.625050607072164
 21
0.3136813437984982
 72
     1
 10
3.625050607072164
 20
0.3136813437984982
 11
3.703331833212512
 21
0.3865766795454191
 72
     1
 10
3.703331833212512
 20
0.3865766795454191
 11
3.671691225042007
 21
0.3865765014202565
 72
     1
 10
3.671691225042007
 20
0.3865765014202565
 11
3.61426955627898
 21
0.3331056458632473
 72
     1
 10
3.61426955627898
 20
0.3331056458632473
 11
3.556847887515953
 21
0.3865763232950938
 97
        0
 75
     0
 76
     1
 98
        1
 10
-7.279586802153931
 20
-0.4081141432880261
  0
HATCH
  5
851
330
841
100
AcDbEntity
  8
TITLEBLOCK
 62
     0
100
AcDbHatch
 10
0.0
 20
0.0
 30
0.0
210
0.0
220
0.0
230
1.0
  2
SOLID
 70
     1
 71
     0
 91
        1
 92
        1
 93
       10
 72
     1
 10
3.376247484495632
 20
0.3865765014202565
 11
3.345207161752892
 21
0.3865765014202565
 72
     1
 10
3.345207161752892
 20
0.3865765014202565
 11
3.345207161752892
 21
0.2579511736405264
 72
     1
 10
3.345207161752892
 20
0.2579511736405264
 11
3.366769638339558
 21
0.2579511736405264
 72
     1
 10
3.366769638339558
 20
0.2579511736405264
 11
3.366769638339558
 21
0.3659393041881229
 72
     1
 10
3.366769638339558
 20
0.3659393041881229
 11
3.48273627034943
 21
0.2579509955155343
 72
     1
 10
3.48273627034943
 20
0.2579509955155343
 11
3.515082122730785
 21
0.2579511736405264
 72
     1
 10
3.515082122730785
 20
0.2579511736405264
 11
3.515082122730785
 21
0.3865765014202565
 72
     1
 10
3.515082122730785
 20
0.3865765014202565
 11
3.49351767739277
 21
0.3865765014202565
 72
     1
 10
3.49351767739277
 20
0.3865765014202565
 11
3.49351767739277
 21
0.277374671329744
 72
     1
 10
3.49351767739277
 20
0.277374671329744
 11
3.376247484495632
 21
0.3865765014202565
 97
        0
 75
     0
 76
     1
 98
        1
 10
-7.279586802153931
 20
-0.4081141432880261
  0
ENDBLK
  5
853
330
841
100
AcDbEntity
  8
0
100
AcDbBlockEnd
  0
BLOCK
  5
AF5
330
AE5
100
AcDbEntity
  8
0
100
AcDbBlockBegin
  2
TITLE-PAD
 70
     2
 10
0.0
 20
0.0
 30
0.0
  3
TITLE-PAD
  1

  0
LWPOLYLINE
  5
B1D
330
AE5
100
AcDbEntity
  8
CONTINUOUS2
 62
     0
100
AcDbPolyline
 90
        7
 70
     1
 43
0.0
 10
16.40000099999999
 20
0.0
 10
16.40000099999999
 20
0.0
 10
16.40000099999999
 20
0.0
 10
8.002461
 20
0.0
 10
8.002461
 20
0.9120019999999993
 10
16.40000099999999
 20
0.9120019999999993
 10
16.40000099999999
 20
0.0
  0
INSERT
  5
B1E
330
AE5
100
AcDbEntity
  8
TITLEBLOCK
 62
     0
100
AcDbBlockReference
  2
LOGO-PAD
 10
12.245701
 20
0.3040000000000003
 30
0.0
  0
LINE
  5
B1F
330
AE5
100
AcDbEntity
  8
CONTINUOUS2
 62
     0
100
AcDbLine
 10
16.40000099999999
 20
0.3040000000000003
 30
0.0
 11
12.245701
 21
0.3040000000000003
 31
0.0
  0
LINE
  5
B20
330
AE5
100
AcDbEntity
  8
CONTINUOUS2
 62
     0
100
AcDbLine
 10
12.245701
 20
0.9120019999999993
 30
0.0
 11
12.245701
 21
0.0
 31
0.0
  0
TEXT
  5
B21
330
AE5
100
AcDbEntity
  8
TEXT1
  6
CONTINUOUS
 62
     0
100
AcDbText
 10
12.36897712113656
 20
0.0611566731182909
 30
0.0
 40
0.0699999951940822
  1
NO.
  7
ROMANS
 11
12.36897712113656
 21
0.096156670715332
 31
0.0
100
AcDbText
 73
     2
  0
TEXT
  5
B22
330
AE5
100
AcDbEntity
  8
TEXT1
  6
CONTINUOUS
 62
     0
100
AcDbText
 10
12.36897712113656
 20
0.1661566731182908
 30
0.0
 40
0.0699999951940822
  1
DWG#
  7
ROMANS
 11
12.36897712113656
 21
0.2011566707153319
 31
0.0
100
AcDbText
 73
     2
  0
ATTDEF
  5
B23
330
AE5
100
AcDbEntity
  8
TEXT1
 62
     0
100
AcDbText
 10
10.10183834893798
 20
0.7474460884590166
 30
0.0
 40
0.1
  1

  7
ROMANS
 72
     4
 11
10.10183834893798
 21
0.7474460884590166
 31
0.0
100
AcDbAttributeDefinition
  3
DESCRIPTION 1
  2
DESCRIPTION 1
 70
     0
  0
ATTDEF
  5
B24
330
AE5
100
AcDbEntity
  8
TEXT1
 62
     0
100
AcDbText
 10
10.10183834893798
 20
0.6017231711406717
 30
0.0
 40
0.1
  1

  7
ROMANS
 72
     4
 11
10.10183834893798
 21
0.6017231711406717
 31
0.0
100
AcDbAttributeDefinition
  3
DESCRIPTION 2
  2
DESCRIPTION 2
 70
     0
  0
ATTDEF
  5
B25
330
AE5
100
AcDbEntity
  8
TEXT1
 62
     0
100
AcDbText
 10
10.10183834893798
 20
0.4560002538223267
 30
0.0
 40
0.08
  1

  7
ROMANS
 72
     4
 11
10.10183834893798
 21
0.4560002538223267
 31
0.0
100
AcDbAttributeDefinition
  3
DESCRIPTION 3
  2
DESCRIPTION 3
 70
     0
  0
ATTDEF
  5
B26
330
AE5
100
AcDbEntity
  8
TEXT1
 62
     0
100
AcDbText
 10
10.10183834893798
 20
0.3202773365039833
 30
0.0
 40
0.08
  1

  7
ROMANS
 72
     4
 11
10.10183834893798
 21
0.3202773365039833
 31
0.0
100
AcDbAttributeDefinition
  3
DESCRIPTION 4
  2
DESCRIPTION 4
 70
     0
  0
ATTDEF
  5
B27
330
AE5
100
AcDbEntity
  8
TEXT1
 62
     0
100
AcDbText
 10
10.10183834893798
 20
0.1845544191856399
 30
0.0
 40
0.08
  1

  7
ROMANS
 72
     4
 11
10.10183834893798
 21
0.1845544191856399
 31
0.0
100
AcDbAttributeDefinition
  3
DESCRIPTION 5
  2
DESCRIPTION 5
 70
     0
  0
ATTDEF
  5
B28
330
AE5
100
AcDbEntity
  8
TEXT1
 62
     0
100
AcDbText
 10
12.74772367103195
 20
0.096540546036505
 30
0.0
 40
0.12
  1

 41
0.9512024731840066
  7
M_STANDARD
 11
12.74772367103195
 21
0.156540546036505
 31
0.0
100
AcDbAttributeDefinition
  3
DRAWING NUMBER
  2
DWGNO
 70
     0
 74
     2
  0
ATTDEF
  5
B29
330
AE5
100
AcDbEntity
  8
TEXT1
 62
     0
100
AcDbText
 10
16.35506454949325
 20
-0.1507193079929352
 30
0.0
 40
0.08
  1

  7
ROMANS
 72
     2
 11
16.35506454949325
 21
-0.1107193079929352
 31
0.0
100
AcDbAttributeDefinition
  3
REF DWG #
  2
REF
 70
     0
 74
     2
  0
ATTDEF
  5
B2A
330
AE5
100
AcDbEntity
  8
TEXT1
 62
     0
100
AcDbText
 10
0.0266402374038712
 20
-0.1507193079929352
 30
0.0
 40
0.08
  1

  7
ROMANS
 11
0.0266402374038712
 21
-0.1107193079929352
 31
0.0
100
AcDbAttributeDefinition
  3
DATE MODIFIED
  2
DATE
 70
     0
 74
     2
  0
LWPOLYLINE
  5
B2B
330
AE5
100
AcDbEntity
  8
CONTINUOUS3
 62
     0
100
AcDbPolyline
 90
        4
 70
   129
 43
0.0
 10
0.0
 20
0.0
 10
16.40000099999999
 20
0.0
 10
16.40000099999999
 20
10.25
 10
0.0
 20
10.25
  0
ENDBLK
  5
AF6
330
AE5
100
AcDbEntity
  8
0
100
AcDbBlockEnd
  0
BLOCK
  5
1DED
330
1DBB
100
AcDbEntity
  8
0
100
AcDbBlockBegin
  2
OEM-NOTES
 70
     0
 10
0.0
 20
0.0
 30
0.0
  3
OEM-NOTES
  1

  0
LWPOLYLINE
  5
1DBC
330
1DBB
100
AcDbEntity
  8
TITLEBLOCK
100
AcDbPolyline
 90
        2
 70
     0
 43
0.0128
 10
8.625
 20
1.599999999999996
 10
0.0
 20
1.6
  0
TEXT
  5
1DC0
330
1DBB
100
AcDbEntity
  8
TITLEBLOCK
100
AcDbText
 10
0.3131249999999959
 20
0.7406249999999998
 30
0.0
 40
0.13125
  1
BE USED ONLY IN CONFORMANCE WITH INSTRUCTIONS ISSUED BY SQUARE D COMPANY.
 41
0.9
  7
SIMPLEX
 72
     4
 11
4.3125
 21
0.7999999999999999
 31
0.0
100
AcDbText
  0
TEXT
  5
1DC1
330
1DBB
100
AcDbEntity
  8
TITLEBLOCK
100
AcDbText
 10
0.2540625000000007
 20
1.045625000000001
 30
0.0
 40
0.13125
  1
HEREON. THIS INFORMATION REMAINS THE PROPERTY OF SQUARE D COMPANY AND MAY
 41
0.9
  7
SIMPLEX
 72
     4
 11
4.3125
 21
1.105000000000001
 31
0.0
100
AcDbText
  0
TEXT
  5
1DC2
330
1DBB
100
AcDbEntity
  8
TITLEBLOCK
100
AcDbText
 10
0.3046875
 20
1.338124999999997
 30
0.0
 40
0.13125
  1
"THE SQUARE D COMPANY HAS PROPRIETARY RIGHTS TO THE INFORMATION CONTAINED
 41
0.9
  7
SIMPLEX
 72
     4
 11
4.3125
 21
1.409999999999997
 31
0.0
100
AcDbText
  0
TEXT
  5
1DC3
330
1DBB
100
AcDbEntity
  8
TITLEBLOCK
100
AcDbText
 10
0.6309374999999977
 20
0.4387499999999984
 30
0.0
 40
0.13125
  1
USER SHOULD VERIFY DRAWINGS ARE TO THE LATEST/CURRENT REVISION PRIOR
 41
0.9
  7
SIMPLEX
 72
     4
 11
4.3125
 21
0.4949999999999984
 31
0.0
100
AcDbText
  0
TEXT
  5
1DC4
330
1DBB
100
AcDbEntity
  8
TITLEBLOCK
100
AcDbText
 10
2.5490625
 20
0.1368749999999972
 30
0.0
 40
0.13125
  1
TO INCORPORATING IN A DESIGN FILE."
 41
0.9
  7
SIMPLEX
 72
     4
 11
4.3125
 21
0.2149999999999972
 31
0.0
100
AcDbText
  0
TEXT
  5
1DC5
330
1DBB
100
AcDbEntity
  8
TITLEBLOCK
100
AcDbText
 10
9.046378855339687
 20
0.2629426489623099
 30
0.0
 40
0.112
  1
UNLESS OTHERWISE SPECIFIED DIMENSIONS ARE IN INCHES
 41
0.8
  7
SIMPLEX
 72
     4
 11
11.06451218867302
 21
0.3189426489623099
 31
0.0
100
AcDbText
  0
LWPOLYLINE
  5
1DC6
330
1DBB
100
AcDbEntity
  8
TITLEBLOCK
100
AcDbPolyline
 90
        2
 70
     0
 43
0.0128
 10
8.625
 20
0.9599999999999964
 10
16.00492200000007
 20
0.9599999999999964
  0
TEXT
  5
1DCA
330
1DBB
100
AcDbEntity
  8
TITLEBLOCK
100
AcDbText
 10
8.7837120071254
 20
0.5472199999999967
 30
0.0
 40
0.2433162500000002
  1
%%uDO NOT SCALE DRAWING
  7
SIMPLEX
 72
     1
 11
11.06451218867302
 21
0.5472199999999967
 31
0.0
100
AcDbText
  0
LWPOLYLINE
  5
1DCB
330
1DBB
100
AcDbEntity
  8
TITLEBLOCK
100
AcDbPolyline
 90
        2
 70
     0
 43
0.0128
 10
8.625
 20
0.9599999999999964
 10
8.625
 20
0.0000000000000009
  0
LWPOLYLINE
  5
1DCF
330
1DBB
100
AcDbEntity
  8
TITLEBLOCK
100
AcDbPolyline
 90
        2
 70
     0
 43
0.0128
 10
8.625
 20
0.0000000000000009
 10
8.625
 20
1.6
  0
LWPOLYLINE
  5
1DD3
330
1DBB
100
AcDbEntity
  8
TITLEBLOCK
100
AcDbPolyline
 90
        2
 70
     0
 43
0.0128
 10
13.49242200000007
 20
1.599999999999995
 10
13.49242200000007
 20
0.0000000000000009
  0
TEXT
  5
1DD7
330
1DBB
100
AcDbEntity
  8
TITLEBLOCK
100
AcDbText
 10
13.77242200000007
 20
0.2099999999999964
 30
0.0
 40
0.1
  1
2 PLACE DECIMALS
  7
SIMPLEX
100
AcDbText
  0
TEXT
  5
1DD8
330
1DBB
100
AcDbEntity
  8
TITLEBLOCK
100
AcDbText
 10
13.62242200000007
 20
0.4474999999999972
 30
0.0
 40
0.1
  1
UNLESS OTHERWISE SPECIFIED
  7
SIMPLEX
100
AcDbText
  0
TEXT
  5
1DD9
330
1DBB
100
AcDbEntity
  8
TITLEBLOCK
100
AcDbText
 10
15.57242200000007
 20
0.2099999999999964
 30
0.0
 40
0.1
  1
.01
  7
SIMPLEX
100
AcDbText
  0
LINE
  5
1DDA
330
1DBB
100
AcDbEntity
  8
TITLEBLOCK
100
AcDbLine
 10
15.35492200000008
 20
0.2187499999999973
 30
0.0
 11
15.45492200000008
 21
0.2187499999999973
 31
0.0
  0
TEXT
  5
1DDB
330
1DBB
100
AcDbEntity
  8
TITLEBLOCK
100
AcDbText
 10
15.35992200000007
 20
0.2474999999999961
 30
0.0
 40
0.1
  1
+
  7
SIMPLEX
100
AcDbText
  0
LWPOLYLINE
  5
1DDC
330
1DBB
100
AcDbEntity
  8
TITLEBLOCK
100
AcDbPolyline
 90
        2
 70
     0
 43
0.0128
 10
16.00492200000007
 20
1.599999999999995
 10
13.49242200000007
 20
1.599999999999995
  0
TEXT
  5
1DE0
330
1DBB
100
AcDbEntity
  8
TITLEBLOCK
100
AcDbText
 10
13.62242200000007
 20
1.147499999999996
 30
0.0
 40
0.1
  1
PROJECTION
  7
SIMPLEX
100
AcDbText
  0
TEXT
  5
1DE1
330
1DBB
100
AcDbEntity
  8
TITLEBLOCK
100
AcDbText
 10
13.55992200000007
 20
1.347499999999997
 30
0.0
 40
0.1
  1
THIRD ANGLE
  7
SIMPLEX
100
AcDbText
  0
LINE
  5
1DE2
330
1DBB
100
AcDbEntity
  8
TITLEBLOCK
100
AcDbLine
 10
14.69692486880008
 20
1.300351715199997
 30
0.0
 11
15.91292523520008
 21
1.300351715199997
 31
0.0
  0
TEXT
  5
1DE3
330
1DBB
100
AcDbEntity
  8
TITLEBLOCK
100
AcDbText
 10
14.04742200000008
 20
0.6974999999999972
 30
0.0
 40
0.15
  1
%%uTOLERANCES
  7
SIMPLEX
100
AcDbText
  0
LINE
  5
1DE4
330
1DBB
100
AcDbEntity
  8
TITLEBLOCK
100
AcDbLine
 10
14.95292615040008
 20
1.396354294399999
 30
0.0
 11
14.95292615040008
 21
1.524354553599997
 31
0.0
  0
CIRCLE
  5
1DE5
330
1DBB
100
AcDbEntity
  8
TITLEBLOCK
100
AcDbCircle
 10
14.95292615040008
 20
1.300352668799996
 30
0.0
 40
0.1279999615999998
  0
CIRCLE
  5
1DE6
330
1DBB
100
AcDbEntity
  8
TITLEBLOCK
100
AcDbCircle
 10
14.95292615040008
 20
1.300352668799996
 30
0.0
 40
0.064000004799999
  0
LINE
  5
1DE7
330
1DBB
100
AcDbEntity
  8
TITLEBLOCK
100
AcDbLine
 10
14.95292615040008
 20
1.332351302399996
 30
0.0
 11
14.95292615040008
 21
1.268351172799996
 31
0.0
  0
LINE
  5
1DE8
330
1DBB
100
AcDbEntity
  8
TITLEBLOCK
100
AcDbLine
 10
14.95292615040008
 20
1.204351996799997
 30
0.0
 11
14.95292615040008
 21
1.076351737599998
 31
0.0
  0
LINE
  5
1DE9
330
1DBB
100
AcDbEntity
  8
TITLEBLOCK
100
AcDbLine
 10
15.78492230560007
 20
1.172351455999998
 30
0.0
 11
15.33692425760007
 21
1.236351585599996
 31
0.0
  0
LINE
  5
1DEA
330
1DBB
100
AcDbEntity
  8
TITLEBLOCK
100
AcDbLine
 10
15.33692425760007
 20
1.364351844799998
 30
0.0
 11
15.78492230560007
 21
1.428351020799996
 31
0.0
  0
LINE
  5
1DEB
330
1DBB
100
AcDbEntity
  8
TITLEBLOCK
100
AcDbLine
 10
15.33692425760007
 20
1.236351585599996
 30
0.0
 11
15.33692425760007
 21
1.364351844799998
 31
0.0
  0
LINE
  5
1DEC
330
1DBB
100
AcDbEntity
  8
TITLEBLOCK
100
AcDbLine
 10
15.78492230560007
 20
1.428351020799996
 30
0.0
 11
15.78492230560007
 21
1.172351455999998
 31
0.0
  0
ENDBLK
  5
1DEE
330
1DBB
100
AcDbEntity
  8
0
100
AcDbBlockEnd
  0
BLOCK
  5
2FD9
330
2FD7
100
AcDbEntity
  8
0
100
AcDbBlockBegin
  2
SEARROW
 70
     0
 10
0.0
 20
0.0
 30
0.0
  3
SEARROW
  1

  0
LWPOLYLINE
  5
2FD8
330
2FD7
100
AcDbEntity
  8
0
  6
BYBLOCK
100
AcDbPolyline
 90
        2
 70
     0
 10
0.0
 20
0.0
 40
0.0
 41
0.5000000001500001
 10
-1.000000000300019
 20
0.0
 40
0.5000000001500001
 41
0.5000000001500001
  0
ENDBLK
  5
2FDA
330
2FD7
100
AcDbEntity
  8
0
100
AcDbBlockEnd
  0
BLOCK
  5
85F9
330
85EE
100
AcDbEntity
  8
0
100
AcDbBlockBegin
  2
*D5
 70
     1
 10
0.0
 20
0.0
 30
0.0
  3
*D5
  1

  0
LINE
  5
9474
330
85EE
100
AcDbEntity
  8
DIM
100
AcDbLine
 10
29.34809446691795
 20
15.70631596861719
 30
0.0
 11
29.34809446691795
 21
16.14686888320346
 31
0.0
  0
LINE
  5
9475
330
85EE
100
AcDbEntity
  8
DIM
100
AcDbLine
 10
30.72809446691794
 20
15.70631596861719
 30
0.0
 11
30.72809446691794
 21
16.14686888320346
 31
0.0
  0
LINE
  5
9476
330
85EE
100
AcDbEntity
  8
DIM
100
AcDbLine
 10
29.48809446691795
 20
16.02186888320346
 30
0.0
 11
29.66761827644175
 21
16.02186888320346
 31
0.0
  0
LINE
  5
9477
330
85EE
100
AcDbEntity
  8
DIM
100
AcDbLine
 10
30.58809446691794
 20
16.02186888320346
 30
0.0
 11
30.40857065739413
 21
16.02186888320346
 31
0.0
  0
INSERT
  5
9478
330
85EE
100
AcDbEntity
  8
DIM
100
AcDbBlockReference
  2
SEARROW
 10
29.34809446691795
 20
16.02186888320346
 30
0.0
 41
0.14
 42
0.14
 43
0.14
 50
180.0
  0
INSERT
  5
9479
330
85EE
100
AcDbEntity
  8
DIM
100
AcDbBlockReference
  2
SEARROW
 10
30.72809446691794
 20
16.02186888320346
 30
0.0
 41
0.14
 42
0.14
 43
0.14
  0
MTEXT
  5
947A
330
85EE
100
AcDbEntity
  8
DIM
100
AcDbMText
 10
30.03809446691795
 20
16.02186888320346
 30
0.0
 40
0.2
 41
0.0
 71
     5
 72
     1
  1
\A1;1.38
  7
ROMANS
1001
ACAD
1000
MTEXTBEGIN
1070
    73
1070
     1
1070
    44
1040
1.0
1070
    74
1070
     0
1000
MTEXTEND
  0
POINT
  5
947B
330
85EE
100
AcDbEntity
  8
DEFPOINTS
 62
     0
100
AcDbPoint
 10
29.34809446691795
 20
15.58131596861719
 30
0.0
  0
POINT
  5
947C
330
85EE
100
AcDbEntity
  8
DEFPOINTS
 62
     0
100
AcDbPoint
 10
30.72809446691794
 20
15.58131596861719
 30
0.0
  0
POINT
  5
947D
330
85EE
100
AcDbEntity
  8
DEFPOINTS
 62
     0
100
AcDbPoint
 10
30.72809446691794
 20
16.02186888320346
 30
0.0
  0
ENDBLK
  5
85FA
330
85EE
100
AcDbEntity
  8
0
100
AcDbBlockEnd
  0
BLOCK
  5
86C4
330
86B9
100
AcDbEntity
  8
0
100
AcDbBlockBegin
  2
*D6
 70
     1
 10
0.0
 20
0.0
 30
0.0
  3
*D6
  1

  0
LINE
  5
947E
330
86B9
100
AcDbEntity
  8
DIM
100
AcDbLine
 10
29.02309446691793
 20
10.69131596861718
 30
0.0
 11
27.71382920566553
 21
10.69131596861719
 31
0.0
  0
LINE
  5
947F
330
86B9
100
AcDbEntity
  8
DIM
100
AcDbLine
 10
29.22309446691794
 20
15.58131596861719
 30
0.0
 11
27.71382920566553
 21
15.58131596861719
 31
0.0
  0
LINE
  5
9480
330
86B9
100
AcDbEntity
  8
DIM
100
AcDbLine
 10
27.83882920566553
 20
10.83131596861719
 30
0.0
 11
27.83882920566553
 21
12.95631596861719
 31
0.0
  0
LINE
  5
9481
330
86B9
100
AcDbEntity
  8
DIM
100
AcDbLine
 10
27.83882920566553
 20
15.44131596861719
 30
0.0
 11
27.83882920566553
 21
13.31631596861719
 31
0.0
  0
INSERT
  5
9482
330
86B9
100
AcDbEntity
  8
DIM
100
AcDbBlockReference
  2
SEARROW
 10
27.83882920566553
 20
10.69131596861719
 30
0.0
 41
0.14
 42
0.14
 43
0.14
 50
270.0
  0
INSERT
  5
9483
330
86B9
100
AcDbEntity
  8
DIM
100
AcDbBlockReference
  2
SEARROW
 10
27.83882920566553
 20
15.58131596861719
 30
0.0
 41
0.14
 42
0.14
 43
0.14
 50
90.0
  0
MTEXT
  5
9484
330
86B9
100
AcDbEntity
  8
DIM
100
AcDbMText
 10
27.83882920566552
 20
13.13631596861719
 30
0.0
 40
0.2
 41
0.0
 71
     5
 72
     1
  1
\A1;4.89
  7
ROMANS
1001
ACAD
1000
MTEXTBEGIN
1070
    73
1070
     1
1070
    44
1040
1.0
1070
    74
1070
     0
1000
MTEXTEND
  0
POINT
  5
9485
330
86B9
100
AcDbEntity
  8
DEFPOINTS
 62
     0
100
AcDbPoint
 10
29.14809446691794
 20
10.69131596861718
 30
0.0
  0
POINT
  5
9486
330
86B9
100
AcDbEntity
  8
DEFPOINTS
 62
     0
100
AcDbPoint
 10
29.34809446691795
 20
15.58131596861719
 30
0.0
  0
POINT
  5
9487
330
86B9
100
AcDbEntity
  8
DEFPOINTS
 62
     0
100
AcDbPoint
 10
27.83882920566553
 20
15.58131596861719
 30
0.0
  0
ENDBLK
  5
86C5
330
86B9
100
AcDbEntity
  8
0
100
AcDbBlockEnd
  0
BLOCK
  5
86E8
330
86DD
100
AcDbEntity
  8
0
100
AcDbBlockBegin
  2
*D7
 70
     1
 10
0.0
 20
0.0
 30
0.0
  3
*D7
  1

  0
LINE
  5
9488
330
86DD
100
AcDbEntity
  8
DIM
100
AcDbLine
 10
29.02309446691793
 20
8.33131596861719
 30
0.0
 11
27.71382920566553
 21
8.331315968617191
 31
0.0
  0
LINE
  5
9489
330
86DD
100
AcDbEntity
  8
DIM
100
AcDbLine
 10
29.02309446691793
 20
10.69131596861718
 30
0.0
 11
27.71382920566553
 21
10.69131596861719
 31
0.0
  0
LINE
  5
948A
330
86DD
100
AcDbEntity
  8
DIM
100
AcDbLine
 10
27.83882920566553
 20
8.471315968617192
 30
0.0
 11
27.83882920566553
 21
9.331315968617191
 31
0.0
  0
LINE
  5
948B
330
86DD
100
AcDbEntity
  8
DIM
100
AcDbLine
 10
27.83882920566553
 20
10.55131596861719
 30
0.0
 11
27.83882920566553
 21
9.691315968617191
 31
0.0
  0
INSERT
  5
948C
330
86DD
100
AcDbEntity
  8
DIM
100
AcDbBlockReference
  2
SEARROW
 10
27.83882920566553
 20
8.331315968617191
 30
0.0
 41
0.14
 42
0.14
 43
0.14
 50
270.0
  0
INSERT
  5
948D
330
86DD
100
AcDbEntity
  8
DIM
100
AcDbBlockReference
  2
SEARROW
 10
27.83882920566553
 20
10.69131596861719
 30
0.0
 41
0.14
 42
0.14
 43
0.14
 50
90.0
  0
MTEXT
  5
948E
330
86DD
100
AcDbEntity
  8
DIM
100
AcDbMText
 10
27.83882920566552
 20
9.511315968617195
 30
0.0
 40
0.2
 41
0.0
 71
     5
 72
     1
  1
\A1;2.36
  7
ROMANS
1001
ACAD
1000
MTEXTBEGIN
1070
    73
1070
     1
1070
    44
1040
1.0
1070
    74
1070
     0
1000
MTEXTEND
  0
POINT
  5
948F
330
86DD
100
AcDbEntity
  8
DEFPOINTS
 62
     0
100
AcDbPoint
 10
29.14809446691794
 20
8.33131596861719
 30
0.0
  0
POINT
  5
9490
330
86DD
100
AcDbEntity
  8
DEFPOINTS
 62
     0
100
AcDbPoint
 10
29.14809446691794
 20
10.69131596861718
 30
0.0
  0
POINT
  5
9491
330
86DD
100
AcDbEntity
  8
DEFPOINTS
 62
     0
100
AcDbPoint
 10
27.83882920566553
 20
10.69131596861719
 30
0.0
  0
ENDBLK
  5
86E9
330
86DD
100
AcDbEntity
  8
0
100
AcDbBlockEnd
  0
BLOCK
  5
876E
330
8763
100
AcDbEntity
  8
0
100
AcDbBlockBegin
  2
*D8
 70
     1
 10
0.0
 20
0.0
 30
0.0
  3
*D8
  1

  0
LINE
  5
9492
330
8763
100
AcDbEntity
  8
DIM
100
AcDbLine
 10
29.14809446691794
 20
7.816315968617189
 30
0.0
 11
29.14809446691794
 21
6.861851410143925
 31
0.0
  0
LINE
  5
9493
330
8763
100
AcDbEntity
  8
DIM
100
AcDbLine
 10
30.72809446691794
 20
7.816315968617189
 30
0.0
 11
30.72809446691794
 21
6.861851410143925
 31
0.0
  0
LINE
  5
9494
330
8763
100
AcDbEntity
  8
DIM
100
AcDbLine
 10
29.28809446691793
 20
6.986851410143925
 30
0.0
 11
29.56761827644175
 21
6.986851410143925
 31
0.0
  0
LINE
  5
9495
330
8763
100
AcDbEntity
  8
DIM
100
AcDbLine
 10
30.58809446691793
 20
6.986851410143925
 30
0.0
 11
30.30857065739413
 21
6.986851410143925
 31
0.0
  0
INSERT
  5
9496
330
8763
100
AcDbEntity
  8
DIM
100
AcDbBlockReference
  2
SEARROW
 10
29.14809446691794
 20
6.986851410143925
 30
0.0
 41
0.14
 42
0.14
 43
0.14
 50
180.0
  0
INSERT
  5
9497
330
8763
100
AcDbEntity
  8
DIM
100
AcDbBlockReference
  2
SEARROW
 10
30.72809446691794
 20
6.986851410143925
 30
0.0
 41
0.14
 42
0.14
 43
0.14
  0
MTEXT
  5
9498
330
8763
100
AcDbEntity
  8
DIM
100
AcDbMText
 10
29.93809446691793
 20
6.986851410143925
 30
0.0
 40
0.2
 41
0.0
 71
     5
 72
     1
  1
\A1;1.58
  7
ROMANS
1001
ACAD
1000
MTEXTBEGIN
1070
    73
1070
     1
1070
    44
1040
1.0
1070
    74
1070
     0
1000
MTEXTEND
  0
POINT
  5
9499
330
8763
100
AcDbEntity
  8
DEFPOINTS
 62
     0
100
AcDbPoint
 10
29.14809446691794
 20
7.941315968617189
 30
0.0
  0
POINT
  5
949A
330
8763
100
AcDbEntity
  8
DEFPOINTS
 62
     0
100
AcDbPoint
 10
30.72809446691794
 20
7.941315968617189
 30
0.0
  0
POINT
  5
949B
330
8763
100
AcDbEntity
  8
DEFPOINTS
 62
     0
100
AcDbPoint
 10
30.72809446691794
 20
6.986851410143925
 30
0.0
  0
ENDBLK
  5
876F
330
8763
100
AcDbEntity
  8
0
100
AcDbBlockEnd
  0
BLOCK
  5
877C
330
8771
100
AcDbEntity
  8
0
100
AcDbBlockBegin
  2
*D9
 70
     1
 10
0.0
 20
0.0
 30
0.0
  3
*D9
  1

  0
LINE
  5
949C
330
8771
100
AcDbEntity
  8
DIM
100
AcDbLine
 10
29.34809446691794
 20
7.816315968617189
 30
0.0
 11
29.34809446691794
 21
7.286715449437096
 31
0.0
  0
LINE
  5
949D
330
8771
100
AcDbEntity
  8
DIM
100
AcDbLine
 10
30.52809446691794
 20
7.816315968617189
 30
0.0
 11
30.52809446691794
 21
7.286715449437096
 31
0.0
  0
LINE
  5
949E
330
8771
100
AcDbEntity
  8
DIM
100
AcDbLine
 10
29.20809446691793
 20
7.411715449437096
 30
0.0
 11
29.06809446691793
 21
7.411715449437096
 31
0.0
  0
LINE
  5
949F
330
8771
100
AcDbEntity
  8
DIM
100
AcDbLine
 10
30.66809446691793
 20
7.411715449437096
 30
0.0
 11
30.80809446691794
 21
7.411715449437096
 31
0.0
  0
INSERT
  5
94A0
330
8771
100
AcDbEntity
  8
DIM
100
AcDbBlockReference
  2
SEARROW
 10
29.34809446691794
 20
7.411715449437096
 30
0.0
 41
0.14
 42
0.14
 43
0.14
  0
INSERT
  5
94A1
330
8771
100
AcDbEntity
  8
DIM
100
AcDbBlockReference
  2
SEARROW
 10
30.52809446691794
 20
7.411715449437096
 30
0.0
 41
0.14
 42
0.14
 43
0.14
 50
180.0
  0
MTEXT
  5
94A2
330
8771
100
AcDbEntity
  8
DIM
100
AcDbMText
 10
29.93809446691793
 20
7.411715449437096
 30
0.0
 40
0.2
 41
0.0
 71
     5
 72
     1
  1
\A1;1.18
  7
ROMANS
1001
ACAD
1000
MTEXTBEGIN
1070
    73
1070
     1
1070
    44
1040
1.0
1070
    74
1070
     0
1000
MTEXTEND
  0
POINT
  5
94A3
330
8771
100
AcDbEntity
  8
DEFPOINTS
 62
     0
100
AcDbPoint
 10
29.34809446691794
 20
7.941315968617189
 30
0.0
  0
POINT
  5
94A4
330
8771
100
AcDbEntity
  8
DEFPOINTS
 62
     0
100
AcDbPoint
 10
30.52809446691794
 20
7.941315968617189
 30
0.0
  0
POINT
  5
94A5
330
8771
100
AcDbEntity
  8
DEFPOINTS
 62
     0
100
AcDbPoint
 10
30.52809446691794
 20
7.411715449437096
 30
0.0
  0
ENDBLK
  5
877D
330
8771
100
AcDbEntity
  8
0
100
AcDbBlockEnd
  0
BLOCK
  5
87CA
330
87BF
100
AcDbEntity
  8
0
100
AcDbBlockBegin
  2
*D10
 70
     1
 10
0.0
 20
0.0
 30
0.0
  3
*D10
  1

  0
LINE
  5
94A6
330
87BF
100
AcDbEntity
  8
DIM
100
AcDbLine
 10
29.02309446691793
 20
7.941315968617189
 30
0.0
 11
27.07513518392005
 21
7.941315968617189
 31
0.0
  0
LINE
  5
94A7
330
87BF
100
AcDbEntity
  8
DIM
100
AcDbLine
 10
29.22309446691794
 20
15.58131596861719
 30
0.0
 11
27.07513518392006
 21
15.58131596861719
 31
0.0
  0
LINE
  5
94A8
330
87BF
100
AcDbEntity
  8
DIM
100
AcDbLine
 10
27.20013518392006
 20
8.08131596861719
 30
0.0
 11
27.20013518392006
 21
11.58131596861719
 31
0.0
  0
LINE
  5
94A9
330
87BF
100
AcDbEntity
  8
DIM
100
AcDbLine
 10
27.20013518392006
 20
15.44131596861719
 30
0.0
 11
27.20013518392006
 21
11.94131596861719
 31
0.0
  0
INSERT
  5
94AA
330
87BF
100
AcDbEntity
  8
DIM
100
AcDbBlockReference
  2
SEARROW
 10
27.20013518392006
 20
7.941315968617189
 30
0.0
 41
0.14
 42
0.14
 43
0.14
 50
270.0
  0
INSERT
  5
94AB
330
87BF
100
AcDbEntity
  8
DIM
100
AcDbBlockReference
  2
SEARROW
 10
27.20013518392006
 20
15.58131596861719
 30
0.0
 41
0.14
 42
0.14
 43
0.14
 50
90.0
  0
MTEXT
  5
94AC
330
87BF
100
AcDbEntity
  8
DIM
100
AcDbMText
 10
27.20013518392006
 20
11.76131596861719
 30
0.0
 40
0.2
 41
0.0
 71
     5
 72
     1
  1
\A1;7.64
  7
ROMANS
1001
ACAD
1000
MTEXTBEGIN
1070
    73
1070
     1
1070
    44
1040
1.0
1070
    74
1070
     0
1000
MTEXTEND
  0
POINT
  5
94AD
330
87BF
100
AcDbEntity
  8
DEFPOINTS
 62
     0
100
AcDbPoint
 10
29.14809446691794
 20
7.941315968617189
 30
0.0
  0
POINT
  5
94AE
330
87BF
100
AcDbEntity
  8
DEFPOINTS
 62
     0
100
AcDbPoint
 10
29.34809446691795
 20
15.58131596861719
 30
0.0
  0
POINT
  5
94AF
330
87BF
100
AcDbEntity
  8
DEFPOINTS
 62
     0
100
AcDbPoint
 10
27.20013518392006
 20
15.58131596861719
 30
0.0
  0
ENDBLK
  5
87CB
330
87BF
100
AcDbEntity
  8
0
100
AcDbBlockEnd
  0
BLOCK
  5
8844
330
883B
100
AcDbEntity
  8
0
100
AcDbBlockBegin
  2
*D11
 70
     1
 10
0.0
 20
0.0
 30
0.0
  3
*D11
  1

  0
LINE
  5
94B0
330
883B
100
AcDbEntity
  8
DIM
100
AcDbLine
 10
31.09932701514609
 20
11.15669125315103
 30
0.0
 11
30.95932701514608
 21
11.15669125315103
 31
0.0
  0
LINE
  5
94B1
330
883B
100
AcDbEntity
  8
DIM
100
AcDbLine
 10
30.95932701514608
 20
11.15669125315103
 30
0.0
 11
30.69461792993522
 21
10.87102388793276
 31
0.0
  0
MTEXT
  5
94B2
330
883B
100
AcDbEntity
  8
DIM
100
AcDbMText
 10
31.45075558657466
 20
11.15669125315103
 30
0.0
 40
0.2
 41
0.0
 71
     5
 72
     1
  1
\A1;\U+2205.21
  7
ROMANS
1001
ACAD
1000
MTEXTBEGIN
1070
    73
1070
     1
1070
    44
1040
1.0
1070
    74
1070
     0
1000
MTEXTEND
  0
INSERT
  5
94B3
330
883B
100
AcDbEntity
  8
DIM
100
AcDbBlockReference
  2
SEARROW
 10
30.59946166535392
 20
10.76833364832386
 30
0.0
 41
0.14
 42
0.14
 43
0.14
 50
227.1807638489684
  0
POINT
  5
94B4
330
883B
100
AcDbEntity
  8
DEFPOINTS
 62
     0
100
AcDbPoint
 10
30.59946166535392
 20
10.76833364832386
 30
0.0
  0
POINT
  5
94B5
330
883B
100
AcDbEntity
  8
DEFPOINTS
 62
     0
100
AcDbPoint
 10
30.45672726848195
 20
10.61429828891051
 30
0.0
  0
ENDBLK
  5
8845
330
883B
100
AcDbEntity
  8
0
100
AcDbBlockEnd
  0
BLOCK
  5
8858
330
884F
100
AcDbEntity
  8
0
100
AcDbBlockBegin
  2
*D12
 70
     1
 10
0.0
 20
0.0
 30
0.0
  3
*D12
  1

  0
LINE
  5
94B6
330
884F
100
AcDbEntity
  8
DIM
100
AcDbLine
 10
31.0993270151461
 20
8.716782785180418
 30
0.0
 11
30.95932701514609
 21
8.716782785180422
 31
0.0
  0
LINE
  5
94B7
330
884F
100
AcDbEntity
  8
DIM
100
AcDbLine
 10
30.95932701514609
 20
8.716782785180422
 30
0.0
 11
30.71930329214263
 21
8.524496206102933
 31
0.0
  0
MTEXT
  5
94B8
330
884F
100
AcDbEntity
  8
DIM
100
AcDbMText
 10
31.79361272943181
 20
8.71678278518042
 30
0.0
 40
0.2
 41
0.0
 71
     5
 72
     1
  1
\A1;\P\U+2205.21x.29\PSLOT
  7
ROMANS
1001
ACAD
1000
MTEXTBEGIN
1070
    73
1070
     1
1070
    44
1040
1.0
1070
    74
1070
     0
1000
MTEXTEND
  0
INSERT
  5
94B9
330
884F
100
AcDbEntity
  8
DIM
100
AcDbBlockReference
  2
SEARROW
 10
30.61004110629995
 20
8.436964641825364
 30
0.0
 41
0.14
 42
0.14
 43
0.14
 50
218.6987374673539
  0
POINT
  5
94BA
330
884F
100
AcDbEntity
  8
DEFPOINTS
 62
     0
100
AcDbPoint
 10
30.61004110629995
 20
8.436964641825364
 30
0.0
  0
POINT
  5
94BB
330
884F
100
AcDbEntity
  8
DEFPOINTS
 62
     0
100
AcDbPoint
 10
30.44614782753592
 20
8.305667295409008
 30
0.0
  0
ENDBLK
  5
8859
330
884F
100
AcDbEntity
  8
0
100
AcDbBlockEnd
  0
BLOCK
  5
897D
330
8972
100
AcDbEntity
  8
0
100
AcDbBlockBegin
  2
*D13
 70
     1
 10
0.0
 20
0.0
 30
0.0
  3
*D13
  1

  0
LINE
  5
94BC
330
8972
100
AcDbEntity
  8
DIM
100
AcDbLine
 10
24.64659807528316
 20
12.57881596861718
 30
0.0
 11
24.64659807528316
 21
16.52417082007715
 31
0.0
  0
LINE
  5
94BD
330
8972
100
AcDbEntity
  8
DIM
100
AcDbLine
 10
26.29659807528316
 20
15.70631596861719
 30
0.0
 11
26.29659807528316
 21
16.52417082007715
 31
0.0
  0
LINE
  5
94BE
330
8972
100
AcDbEntity
  8
DIM
100
AcDbLine
 10
24.78659807528316
 20
16.39917082007714
 30
0.0
 11
25.10112188480697
 21
16.39917082007714
 31
0.0
  0
LINE
  5
94BF
330
8972
100
AcDbEntity
  8
DIM
100
AcDbLine
 10
26.15659807528316
 20
16.39917082007714
 30
0.0
 11
25.84207426575935
 21
16.39917082007714
 31
0.0
  0
INSERT
  5
94C0
330
8972
100
AcDbEntity
  8
DIM
100
AcDbBlockReference
  2
SEARROW
 10
24.64659807528316
 20
16.39917082007714
 30
0.0
 41
0.14
 42
0.14
 43
0.14
 50
180.0
  0
INSERT
  5
94C1
330
8972
100
AcDbEntity
  8
DIM
100
AcDbBlockReference
  2
SEARROW
 10
26.29659807528316
 20
16.39917082007714
 30
0.0
 41
0.14
 42
0.14
 43
0.14
  0
MTEXT
  5
94C2
330
8972
100
AcDbEntity
  8
DIM
100
AcDbMText
 10
25.47159807528316
 20
16.39917082007714
 30
0.0
 40
0.2
 41
0.0
 71
     5
 72
     1
  1
\A1;1.65
  7
ROMANS
1001
ACAD
1000
MTEXTBEGIN
1070
    73
1070
     1
1070
    44
1040
1.0
1070
    74
1070
     0
1000
MTEXTEND
  0
POINT
  5
94C3
330
8972
100
AcDbEntity
  8
DEFPOINTS
 62
     0
100
AcDbPoint
 10
24.64659807528316
 20
12.45381596861718
 30
0.0
  0
POINT
  5
94C4
330
8972
100
AcDbEntity
  8
DEFPOINTS
 62
     0
100
AcDbPoint
 10
26.29659807528316
 20
15.58131596861719
 30
0.0
  0
POINT
  5
94C5
330
8972
100
AcDbEntity
  8
DEFPOINTS
 62
     0
100
AcDbPoint
 10
26.29659807528316
 20
16.39917082007714
 30
0.0
  0
ENDBLK
  5
897E
330
8972
100
AcDbEntity
  8
0
100
AcDbBlockEnd
  0
BLOCK
  5
898B
330
8980
100
AcDbEntity
  8
0
100
AcDbBlockBegin
  2
*D14
 70
     1
 10
0.0
 20
0.0
 30
0.0
  3
*D14
  1

  0
LINE
  5
94C6
330
8980
100
AcDbEntity
  8
DIM
100
AcDbLine
 10
24.91659807528316
 20
15.70631596861719
 30
0.0
 11
24.91659807528316
 21
16.14686888320346
 31
0.0
  0
LINE
  5
94C7
330
8980
100
AcDbEntity
  8
DIM
100
AcDbLine
 10
26.29659807528316
 20
15.70631596861719
 30
0.0
 11
26.29659807528316
 21
16.14686888320346
 31
0.0
  0
LINE
  5
94C8
330
8980
100
AcDbEntity
  8
DIM
100
AcDbLine
 10
25.05659807528316
 20
16.02186888320346
 30
0.0
 11
25.23612188480697
 21
16.02186888320346
 31
0.0
  0
LINE
  5
94C9
330
8980
100
AcDbEntity
  8
DIM
100
AcDbLine
 10
26.15659807528316
 20
16.02186888320346
 30
0.0
 11
25.97707426575935
 21
16.02186888320346
 31
0.0
  0
INSERT
  5
94CA
330
8980
100
AcDbEntity
  8
DIM
100
AcDbBlockReference
  2
SEARROW
 10
24.91659807528316
 20
16.02186888320346
 30
0.0
 41
0.14
 42
0.14
 43
0.14
 50
180.0
  0
INSERT
  5
94CB
330
8980
100
AcDbEntity
  8
DIM
100
AcDbBlockReference
  2
SEARROW
 10
26.29659807528316
 20
16.02186888320346
 30
0.0
 41
0.14
 42
0.14
 43
0.14
  0
MTEXT
  5
94CC
330
8980
100
AcDbEntity
  8
DIM
100
AcDbMText
 10
25.60659807528316
 20
16.02186888320346
 30
0.0
 40
0.2
 41
0.0
 71
     5
 72
     1
  1
\A1;1.38
  7
ROMANS
1001
ACAD
1000
MTEXTBEGIN
1070
    73
1070
     1
1070
    44
1040
1.0
1070
    74
1070
     0
1000
MTEXTEND
  0
POINT
  5
94CD
330
8980
100
AcDbEntity
  8
DEFPOINTS
 62
     0
100
AcDbPoint
 10
24.91659807528316
 20
15.58131596861719
 30
0.0
  0
POINT
  5
94CE
330
8980
100
AcDbEntity
  8
DEFPOINTS
 62
     0
100
AcDbPoint
 10
26.29659807528316
 20
15.58131596861719
 30
0.0
  0
POINT
  5
94CF
330
8980
100
AcDbEntity
  8
DEFPOINTS
 62
     0
100
AcDbPoint
 10
26.29659807528316
 20
16.02186888320346
 30
0.0
  0
ENDBLK
  5
898C
330
8980
100
AcDbEntity
  8
0
100
AcDbBlockEnd
  0
BLOCK
  5
89C1
330
89B6
100
AcDbEntity
  8
0
100
AcDbBlockBegin
  2
*D15
 70
     1
 10
0.0
 20
0.0
 30
0.0
  3
*D15
  1

  0
LINE
  5
94D0
330
89B6
100
AcDbEntity
  8
DIM
100
AcDbLine
 10
24.56659807528316
 20
7.903815968617191
 30
0.0
 11
24.56659807528316
 21
6.861851410143925
 31
0.0
  0
LINE
  5
94D1
330
89B6
100
AcDbEntity
  8
DIM
100
AcDbLine
 10
26.29659807528316
 20
7.816315968617193
 30
0.0
 11
26.29659807528316
 21
6.861851410143925
 31
0.0
  0
LINE
  5
94D2
330
89B6
100
AcDbEntity
  8
DIM
100
AcDbLine
 10
24.70659807528316
 20
6.986851410143925
 30
0.0
 11
25.06112188480697
 21
6.986851410143925
 31
0.0
  0
LINE
  5
94D3
330
89B6
100
AcDbEntity
  8
DIM
100
AcDbLine
 10
26.15659807528316
 20
6.986851410143925
 30
0.0
 11
25.80207426575935
 21
6.986851410143925
 31
0.0
  0
INSERT
  5
94D4
330
89B6
100
AcDbEntity
  8
DIM
100
AcDbBlockReference
  2
SEARROW
 10
24.56659807528316
 20
6.986851410143925
 30
0.0
 41
0.14
 42
0.14
 43
0.14
 50
180.0
  0
INSERT
  5
94D5
330
89B6
100
AcDbEntity
  8
DIM
100
AcDbBlockReference
  2
SEARROW
 10
26.29659807528316
 20
6.986851410143925
 30
0.0
 41
0.14
 42
0.14
 43
0.14
  0
MTEXT
  5
94D6
330
89B6
100
AcDbEntity
  8
DIM
100
AcDbMText
 10
25.43159807528316
 20
6.986851410143925
 30
0.0
 40
0.2
 41
0.0
 71
     5
 72
     1
  1
\A1;1.73
  7
ROMANS
1001
ACAD
1000
MTEXTBEGIN
1070
    73
1070
     1
1070
    44
1040
1.0
1070
    74
1070
     0
1000
MTEXTEND
  0
POINT
  5
94D7
330
89B6
100
AcDbEntity
  8
DEFPOINTS
 62
     0
100
AcDbPoint
 10
24.56659807528316
 20
8.028815968617191
 30
0.0
  0
POINT
  5
94D8
330
89B6
100
AcDbEntity
  8
DEFPOINTS
 62
     0
100
AcDbPoint
 10
26.29659807528316
 20
7.941315968617193
 30
0.0
  0
POINT
  5
94D9
330
89B6
100
AcDbEntity
  8
DEFPOINTS
 62
     0
100
AcDbPoint
 10
26.29659807528316
 20
6.986851410143925
 30
0.0
  0
ENDBLK
  5
89C2
330
89B6
100
AcDbEntity
  8
0
100
AcDbBlockEnd
  0
BLOCK
  5
89EB
330
89E0
100
AcDbEntity
  8
0
100
AcDbBlockBegin
  2
*D16
 70
     1
 10
0.0
 20
0.0
 30
0.0
  3
*D16
  1

  0
LINE
  5
94DA
330
89E0
100
AcDbEntity
  8
DIM
100
AcDbLine
 10
24.97659807528316
 20
7.816315968617189
 30
0.0
 11
24.97659807528316
 21
7.286715449437096
 31
0.0
  0
LINE
  5
94DB
330
89E0
100
AcDbEntity
  8
DIM
100
AcDbLine
 10
26.29659807528316
 20
7.816315968617189
 30
0.0
 11
26.29659807528316
 21
7.286715449437096
 31
0.0
  0
LINE
  5
94DC
330
89E0
100
AcDbEntity
  8
DIM
100
AcDbLine
 10
25.11659807528316
 20
7.411715449437096
 30
0.0
 11
25.26612188480697
 21
7.411715449437096
 31
0.0
  0
LINE
  5
94DD
330
89E0
100
AcDbEntity
  8
DIM
100
AcDbLine
 10
26.15659807528316
 20
7.411715449437096
 30
0.0
 11
26.00707426575935
 21
7.411715449437096
 31
0.0
  0
INSERT
  5
94DE
330
89E0
100
AcDbEntity
  8
DIM
100
AcDbBlockReference
  2
SEARROW
 10
24.97659807528316
 20
7.411715449437096
 30
0.0
 41
0.14
 42
0.14
 43
0.14
 50
180.0
  0
INSERT
  5
94DF
330
89E0
100
AcDbEntity
  8
DIM
100
AcDbBlockReference
  2
SEARROW
 10
26.29659807528316
 20
7.411715449437096
 30
0.0
 41
0.14
 42
0.14
 43
0.14
  0
MTEXT
  5
94E0
330
89E0
100
AcDbEntity
  8
DIM
100
AcDbMText
 10
25.63659807528316
 20
7.411715449437096
 30
0.0
 40
0.2
 41
0.0
 71
     5
 72
     1
  1
\A1;1.32
  7
ROMANS
1001
ACAD
1000
MTEXTBEGIN
1070
    73
1070
     1
1070
    44
1040
1.0
1070
    74
1070
     0
1000
MTEXTEND
  0
POINT
  5
94E1
330
89E0
100
AcDbEntity
  8
DEFPOINTS
 62
     0
100
AcDbPoint
 10
24.97659807528316
 20
7.941315968617189
 30
0.0
  0
POINT
  5
94E2
330
89E0
100
AcDbEntity
  8
DEFPOINTS
 62
     0
100
AcDbPoint
 10
26.29659807528316
 20
7.941315968617189
 30
0.0
  0
POINT
  5
94E3
330
89E0
100
AcDbEntity
  8
DEFPOINTS
 62
     0
100
AcDbPoint
 10
26.29659807528316
 20
7.411715449437096
 30
0.0
  0
ENDBLK
  5
89EC
330
89E0
100
AcDbEntity
  8
0
100
AcDbBlockEnd
  0
BLOCK
  5
8A40
330
8A35
100
AcDbEntity
  8
0
100
AcDbBlockBegin
  2
*D17
 70
     1
 10
0.0
 20
0.0
 30
0.0
  3
*D17
  1

  0
LINE
  5
94E4
330
8A35
100
AcDbEntity
  8
DIM
100
AcDbLine
 10
24.48959807528315
 20
10.80381596861719
 30
0.0
 11
24.00327015878888
 21
10.80381596861719
 31
0.0
  0
LINE
  5
94E5
330
8A35
100
AcDbEntity
  8
DIM
100
AcDbLine
 10
24.52159807528316
 20
12.18381596861719
 30
0.0
 11
24.00327015878888
 21
12.18381596861719
 31
0.0
  0
LINE
  5
94E6
330
8A35
100
AcDbEntity
  8
DIM
100
AcDbLine
 10
24.12827015878888
 20
10.94381596861719
 30
0.0
 11
24.12827015878888
 21
11.31381596861719
 31
0.0
  0
LINE
  5
94E7
330
8A35
100
AcDbEntity
  8
DIM
100
AcDbLine
 10
24.12827015878888
 20
12.04381596861719
 30
0.0
 11
24.12827015878888
 21
11.67381596861719
 31
0.0
  0
INSERT
  5
94E8
330
8A35
100
AcDbEntity
  8
DIM
100
AcDbBlockReference
  2
SEARROW
 10
24.12827015878888
 20
10.80381596861719
 30
0.0
 41
0.14
 42
0.14
 43
0.14
 50
270.0
  0
INSERT
  5
94E9
330
8A35
100
AcDbEntity
  8
DIM
100
AcDbBlockReference
  2
SEARROW
 10
24.12827015878888
 20
12.18381596861719
 30
0.0
 41
0.14
 42
0.14
 43
0.14
 50
90.0
  0
MTEXT
  5
94EA
330
8A35
100
AcDbEntity
  8
DIM
100
AcDbMText
 10
24.12827015878887
 20
11.49381596861719
 30
0.0
 40
0.2
 41
0.0
 71
     5
 72
     1
  1
\A1;1.38
  7
ROMANS
1001
ACAD
1000
MTEXTBEGIN
1070
    73
1070
     1
1070
    44
1040
1.0
1070
    74
1070
     0
1000
MTEXTEND
  0
POINT
  5
94EB
330
8A35
100
AcDbEntity
  8
DEFPOINTS
 62
     0
100
AcDbPoint
 10
24.61459807528315
 20
10.80381596861719
 30
0.0
  0
POINT
  5
94EC
330
8A35
100
AcDbEntity
  8
DEFPOINTS
 62
     0
100
AcDbPoint
 10
24.64659807528316
 20
12.18381596861719
 30
0.0
  0
POINT
  5
94ED
330
8A35
100
AcDbEntity
  8
DEFPOINTS
 62
     0
100
AcDbPoint
 10
24.12827015878888
 20
12.18381596861719
 30
0.0
  0
ENDBLK
  5
8A41
330
8A35
100
AcDbEntity
  8
0
100
AcDbBlockEnd
  0
BLOCK
  5
8C25
330
8C1A
100
AcDbEntity
  8
0
100
AcDbBlockBegin
  2
*D18
 70
     1
 10
0.0
 20
0.0
 30
0.0
  3
*D18
  1

  0
LINE
  5
9573
330
8C1A
100
AcDbEntity
  8
DIM
100
AcDbLine
 10
21.17144633099422
 20
15.70631596861719
 30
0.0
 11
21.17144633099422
 21
16.14686888320347
 31
0.0
  0
LINE
  5
9574
330
8C1A
100
AcDbEntity
  8
DIM
100
AcDbLine
 10
22.55144633099422
 20
15.70631596861719
 30
0.0
 11
22.55144633099422
 21
16.14686888320347
 31
0.0
  0
LINE
  5
9575
330
8C1A
100
AcDbEntity
  8
DIM
100
AcDbLine
 10
21.31144633099423
 20
16.02186888320347
 30
0.0
 11
21.49097014051803
 21
16.02186888320347
 31
0.0
  0
LINE
  5
9576
330
8C1A
100
AcDbEntity
  8
DIM
100
AcDbLine
 10
22.41144633099422
 20
16.02186888320347
 30
0.0
 11
22.23192252147041
 21
16.02186888320347
 31
0.0
  0
INSERT
  5
9577
330
8C1A
100
AcDbEntity
  8
DIM
100
AcDbBlockReference
  2
SEARROW
 10
21.17144633099422
 20
16.02186888320347
 30
0.0
 41
0.14
 42
0.14
 43
0.14
 50
180.0
  0
INSERT
  5
9578
330
8C1A
100
AcDbEntity
  8
DIM
100
AcDbBlockReference
  2
SEARROW
 10
22.55144633099422
 20
16.02186888320347
 30
0.0
 41
0.14
 42
0.14
 43
0.14
  0
MTEXT
  5
9579
330
8C1A
100
AcDbEntity
  8
DIM
100
AcDbMText
 10
21.86144633099422
 20
16.02186888320347
 30
0.0
 40
0.2
 41
0.0
 71
     5
 72
     1
  1
\A1;1.38
  7
ROMANS
1001
ACAD
1000
MTEXTBEGIN
1070
    73
1070
     1
1070
    44
1040
1.0
1070
    74
1070
     0
1000
MTEXTEND
  0
POINT
  5
957A
330
8C1A
100
AcDbEntity
  8
DEFPOINTS
 62
     0
100
AcDbPoint
 10
21.17144633099422
 20
15.58131596861719
 30
0.0
  0
POINT
  5
957B
330
8C1A
100
AcDbEntity
  8
DEFPOINTS
 62
     0
100
AcDbPoint
 10
22.55144633099422
 20
15.58131596861719
 30
0.0
  0
POINT
  5
957C
330
8C1A
100
AcDbEntity
  8
DEFPOINTS
 62
     0
100
AcDbPoint
 10
22.55144633099422
 20
16.02186888320347
 30
0.0
  0
ENDBLK
  5
8C26
330
8C1A
100
AcDbEntity
  8
0
100
AcDbBlockEnd
  0
BLOCK
  5
8C32
330
8C27
100
AcDbEntity
  8
0
100
AcDbBlockBegin
  2
*D19
 70
     1
 10
0.0
 20
0.0
 30
0.0
  3
*D19
  1

  0
LINE
  5
9569
330
8C27
100
AcDbEntity
  8
DIM
100
AcDbLine
 10
19.56144633099422
 20
14.26381596861718
 30
0.0
 11
19.56144633099422
 21
16.52417082007715
 31
0.0
  0
LINE
  5
956A
330
8C27
100
AcDbEntity
  8
DIM
100
AcDbLine
 10
22.55144633099422
 20
15.70631596861719
 30
0.0
 11
22.55144633099422
 21
16.52417082007715
 31
0.0
  0
LINE
  5
956B
330
8C27
100
AcDbEntity
  8
DIM
100
AcDbLine
 10
19.70144633099422
 20
16.39917082007714
 30
0.0
 11
20.67644633099422
 21
16.39917082007714
 31
0.0
  0
LINE
  5
956C
330
8C27
100
AcDbEntity
  8
DIM
100
AcDbLine
 10
22.41144633099422
 20
16.39917082007714
 30
0.0
 11
21.43644633099421
 21
16.39917082007714
 31
0.0
  0
INSERT
  5
956D
330
8C27
100
AcDbEntity
  8
DIM
100
AcDbBlockReference
  2
SEARROW
 10
19.56144633099422
 20
16.39917082007714
 30
0.0
 41
0.14
 42
0.14
 43
0.14
 50
180.0
  0
INSERT
  5
956E
330
8C27
100
AcDbEntity
  8
DIM
100
AcDbBlockReference
  2
SEARROW
 10
22.55144633099422
 20
16.39917082007714
 30
0.0
 41
0.14
 42
0.14
 43
0.14
  0
MTEXT
  5
956F
330
8C27
100
AcDbEntity
  8
DIM
100
AcDbMText
 10
21.05644633099422
 20
16.39917082007714
 30
0.0
 40
0.2
 41
0.0
 71
     5
 72
     1
  1
\A1;2.99
  7
ROMANS
1001
ACAD
1000
MTEXTBEGIN
1070
    73
1070
     1
1070
    44
1040
1.0
1070
    74
1070
     0
1000
MTEXTEND
  0
POINT
  5
9570
330
8C27
100
AcDbEntity
  8
DEFPOINTS
 62
     0
100
AcDbPoint
 10
19.56144633099422
 20
14.13881596861718
 30
0.0
  0
POINT
  5
9571
330
8C27
100
AcDbEntity
  8
DEFPOINTS
 62
     0
100
AcDbPoint
 10
22.55144633099422
 20
15.58131596861719
 30
0.0
  0
POINT
  5
9572
330
8C27
100
AcDbEntity
  8
DEFPOINTS
 62
     0
100
AcDbPoint
 10
22.55144633099422
 20
16.39917082007714
 30
0.0
  0
ENDBLK
  5
8C33
330
8C27
100
AcDbEntity
  8
0
100
AcDbBlockEnd
  0
BLOCK
  5
8C3F
330
8C34
100
AcDbEntity
  8
0
100
AcDbBlockBegin
  2
*D20
 70
     1
 10
0.0
 20
0.0
 30
0.0
  3
*D20
  1

  0
LINE
  5
952A
330
8C34
100
AcDbEntity
  8
DIM
100
AcDbLine
 10
20.84644633099422
 20
10.69131596861719
 30
0.0
 11
18.89648066146195
 21
10.69131596861719
 31
0.0
  0
LINE
  5
952B
330
8C34
100
AcDbEntity
  8
DIM
100
AcDbLine
 10
21.04644633099423
 20
15.58131596861719
 30
0.0
 11
18.89648066146195
 21
15.58131596861719
 31
0.0
  0
LINE
  5
952C
330
8C34
100
AcDbEntity
  8
DIM
100
AcDbLine
 10
19.02148066146195
 20
10.83131596861719
 30
0.0
 11
19.02148066146195
 21
12.95631596861719
 31
0.0
  0
LINE
  5
952D
330
8C34
100
AcDbEntity
  8
DIM
100
AcDbLine
 10
19.02148066146195
 20
15.44131596861719
 30
0.0
 11
19.02148066146195
 21
13.31631596861719
 31
0.0
  0
INSERT
  5
952E
330
8C34
100
AcDbEntity
  8
DIM
100
AcDbBlockReference
  2
SEARROW
 10
19.02148066146195
 20
10.69131596861719
 30
0.0
 41
0.14
 42
0.14
 43
0.14
 50
270.0
  0
INSERT
  5
952F
330
8C34
100
AcDbEntity
  8
DIM
100
AcDbBlockReference
  2
SEARROW
 10
19.02148066146195
 20
15.58131596861719
 30
0.0
 41
0.14
 42
0.14
 43
0.14
 50
90.0
  0
MTEXT
  5
9530
330
8C34
100
AcDbEntity
  8
DIM
100
AcDbMText
 10
19.02148066146195
 20
13.13631596861719
 30
0.0
 40
0.2
 41
0.0
 71
     5
 72
     1
  1
\A1;4.89
  7
ROMANS
1001
ACAD
1000
MTEXTBEGIN
1070
    73
1070
     1
1070
    44
1040
1.0
1070
    74
1070
     0
1000
MTEXTEND
  0
POINT
  5
9531
330
8C34
100
AcDbEntity
  8
DEFPOINTS
 62
     0
100
AcDbPoint
 10
20.97144633099421
 20
10.69131596861719
 30
0.0
  0
POINT
  5
9532
330
8C34
100
AcDbEntity
  8
DEFPOINTS
 62
     0
100
AcDbPoint
 10
21.17144633099422
 20
15.58131596861719
 30
0.0
  0
POINT
  5
9533
330
8C34
100
AcDbEntity
  8
DEFPOINTS
 62
     0
100
AcDbPoint
 10
19.02148066146195
 20
15.58131596861719
 30
0.0
  0
ENDBLK
  5
8C40
330
8C34
100
AcDbEntity
  8
0
100
AcDbBlockEnd
  0
BLOCK
  5
8C4C
330
8C41
100
AcDbEntity
  8
0
100
AcDbBlockBegin
  2
*D21
 70
     1
 10
0.0
 20
0.0
 30
0.0
  3
*D21
  1

  0
LINE
  5
953A
330
8C41
100
AcDbEntity
  8
DIM
100
AcDbLine
 10
20.84644633099422
 20
8.331315968617191
 30
0.0
 11
18.89648066146195
 21
8.331315968617193
 31
0.0
  0
LINE
  5
953B
330
8C41
100
AcDbEntity
  8
DIM
100
AcDbLine
 10
20.84644633099422
 20
10.69131596861719
 30
0.0
 11
18.89648066146195
 21
10.69131596861719
 31
0.0
  0
LINE
  5
953C
330
8C41
100
AcDbEntity
  8
DIM
100
AcDbLine
 10
19.02148066146195
 20
8.471315968617194
 30
0.0
 11
19.02148066146195
 21
9.331315968617193
 31
0.0
  0
LINE
  5
953D
330
8C41
100
AcDbEntity
  8
DIM
100
AcDbLine
 10
19.02148066146195
 20
10.55131596861719
 30
0.0
 11
19.02148066146195
 21
9.691315968617193
 31
0.0
  0
INSERT
  5
953E
330
8C41
100
AcDbEntity
  8
DIM
100
AcDbBlockReference
  2
SEARROW
 10
19.02148066146195
 20
8.331315968617193
 30
0.0
 41
0.14
 42
0.14
 43
0.14
 50
270.0
  0
INSERT
  5
953F
330
8C41
100
AcDbEntity
  8
DIM
100
AcDbBlockReference
  2
SEARROW
 10
19.02148066146195
 20
10.69131596861719
 30
0.0
 41
0.14
 42
0.14
 43
0.14
 50
90.0
  0
MTEXT
  5
9540
330
8C41
100
AcDbEntity
  8
DIM
100
AcDbMText
 10
19.02148066146195
 20
9.511315968617195
 30
0.0
 40
0.2
 41
0.0
 71
     5
 72
     1
  1
\A1;2.36
  7
ROMANS
1001
ACAD
1000
MTEXTBEGIN
1070
    73
1070
     1
1070
    44
1040
1.0
1070
    74
1070
     0
1000
MTEXTEND
  0
POINT
  5
9541
330
8C41
100
AcDbEntity
  8
DEFPOINTS
 62
     0
100
AcDbPoint
 10
20.97144633099421
 20
8.331315968617191
 30
0.0
  0
POINT
  5
9542
330
8C41
100
AcDbEntity
  8
DEFPOINTS
 62
     0
100
AcDbPoint
 10
20.97144633099421
 20
10.69131596861719
 30
0.0
  0
POINT
  5
9543
330
8C41
100
AcDbEntity
  8
DEFPOINTS
 62
     0
100
AcDbPoint
 10
19.02148066146195
 20
10.69131596861719
 30
0.0
  0
ENDBLK
  5
8C4D
330
8C41
100
AcDbEntity
  8
0
100
AcDbBlockEnd
  0
BLOCK
  5
8C59
330
8C4E
100
AcDbEntity
  8
0
100
AcDbBlockBegin
  2
*D22
 70
     1
 10
0.0
 20
0.0
 30
0.0
  3
*D22
  1

  0
LINE
  5
954E
330
8C4E
100
AcDbEntity
  8
DIM
100
AcDbLine
 10
20.97144633099421
 20
7.816315968617191
 30
0.0
 11
20.97144633099421
 21
6.861851410143927
 31
0.0
  0
LINE
  5
954F
330
8C4E
100
AcDbEntity
  8
DIM
100
AcDbLine
 10
22.55144633099421
 20
7.816315968617191
 30
0.0
 11
22.55144633099421
 21
6.861851410143927
 31
0.0
  0
LINE
  5
9550
330
8C4E
100
AcDbEntity
  8
DIM
100
AcDbLine
 10
21.11144633099422
 20
6.986851410143927
 30
0.0
 11
21.39097014051802
 21
6.986851410143927
 31
0.0
  0
LINE
  5
9551
330
8C4E
100
AcDbEntity
  8
DIM
100
AcDbLine
 10
22.41144633099421
 20
6.986851410143927
 30
0.0
 11
22.1319225214704
 21
6.986851410143927
 31
0.0
  0
INSERT
  5
9552
330
8C4E
100
AcDbEntity
  8
DIM
100
AcDbBlockReference
  2
SEARROW
 10
20.97144633099421
 20
6.986851410143927
 30
0.0
 41
0.14
 42
0.14
 43
0.14
 50
180.0
  0
INSERT
  5
9553
330
8C4E
100
AcDbEntity
  8
DIM
100
AcDbBlockReference
  2
SEARROW
 10
22.55144633099421
 20
6.986851410143927
 30
0.0
 41
0.14
 42
0.14
 43
0.14
  0
MTEXT
  5
9554
330
8C4E
100
AcDbEntity
  8
DIM
100
AcDbMText
 10
21.76144633099422
 20
6.986851410143927
 30
0.0
 40
0.2
 41
0.0
 71
     5
 72
     1
  1
\A1;1.58
  7
ROMANS
1001
ACAD
1000
MTEXTBEGIN
1070
    73
1070
     1
1070
    44
1040
1.0
1070
    74
1070
     0
1000
MTEXTEND
  0
POINT
  5
9555
330
8C4E
100
AcDbEntity
  8
DEFPOINTS
 62
     0
100
AcDbPoint
 10
20.97144633099421
 20
7.941315968617191
 30
0.0
  0
POINT
  5
9556
330
8C4E
100
AcDbEntity
  8
DEFPOINTS
 62
     0
100
AcDbPoint
 10
22.55144633099421
 20
7.941315968617191
 30
0.0
  0
POINT
  5
9557
330
8C4E
100
AcDbEntity
  8
DEFPOINTS
 62
     0
100
AcDbPoint
 10
22.55144633099421
 20
6.986851410143927
 30
0.0
  0
ENDBLK
  5
8C5A
330
8C4E
100
AcDbEntity
  8
0
100
AcDbBlockEnd
  0
BLOCK
  5
8C66
330
8C5B
100
AcDbEntity
  8
0
100
AcDbBlockBegin
  2
*D23
 70
     1
 10
0.0
 20
0.0
 30
0.0
  3
*D23
  1

  0
LINE
  5
9544
330
8C5B
100
AcDbEntity
  8
DIM
100
AcDbLine
 10
21.17144633099421
 20
7.816315968617191
 30
0.0
 11
21.17144633099421
 21
7.286715449437098
 31
0.0
  0
LINE
  5
9545
330
8C5B
100
AcDbEntity
  8
DIM
100
AcDbLine
 10
22.35144633099421
 20
7.816315968617191
 30
0.0
 11
22.35144633099421
 21
7.286715449437098
 31
0.0
  0
LINE
  5
9546
330
8C5B
100
AcDbEntity
  8
DIM
100
AcDbLine
 10
21.03144633099421
 20
7.411715449437098
 30
0.0
 11
20.89144633099421
 21
7.411715449437098
 31
0.0
  0
LINE
  5
9547
330
8C5B
100
AcDbEntity
  8
DIM
100
AcDbLine
 10
22.49144633099422
 20
7.411715449437098
 30
0.0
 11
22.63144633099421
 21
7.411715449437098
 31
0.0
  0
INSERT
  5
9548
330
8C5B
100
AcDbEntity
  8
DIM
100
AcDbBlockReference
  2
SEARROW
 10
21.17144633099421
 20
7.411715449437098
 30
0.0
 41
0.14
 42
0.14
 43
0.14
  0
INSERT
  5
9549
330
8C5B
100
AcDbEntity
  8
DIM
100
AcDbBlockReference
  2
SEARROW
 10
22.35144633099421
 20
7.411715449437098
 30
0.0
 41
0.14
 42
0.14
 43
0.14
 50
180.0
  0
MTEXT
  5
954A
330
8C5B
100
AcDbEntity
  8
DIM
100
AcDbMText
 10
21.76144633099422
 20
7.411715449437098
 30
0.0
 40
0.2
 41
0.0
 71
     5
 72
     1
  1
\A1;1.18
  7
ROMANS
1001
ACAD
1000
MTEXTBEGIN
1070
    73
1070
     1
1070
    44
1040
1.0
1070
    74
1070
     0
1000
MTEXTEND
  0
POINT
  5
954B
330
8C5B
100
AcDbEntity
  8
DEFPOINTS
 62
     0
100
AcDbPoint
 10
21.17144633099421
 20
7.941315968617191
 30
0.0
  0
POINT
  5
954C
330
8C5B
100
AcDbEntity
  8
DEFPOINTS
 62
     0
100
AcDbPoint
 10
22.35144633099421
 20
7.941315968617191
 30
0.0
  0
POINT
  5
954D
330
8C5B
100
AcDbEntity
  8
DEFPOINTS
 62
     0
100
AcDbPoint
 10
22.35144633099421
 20
7.411715449437098
 30
0.0
  0
ENDBLK
  5
8C67
330
8C5B
100
AcDbEntity
  8
0
100
AcDbBlockEnd
  0
BLOCK
  5
8C73
330
8C68
100
AcDbEntity
  8
0
100
AcDbBlockBegin
  2
*D24
 70
     1
 10
0.0
 20
0.0
 30
0.0
  3
*D24
  1

  0
LINE
  5
94EE
330
8C68
100
AcDbEntity
  8
DIM
100
AcDbLine
 10
20.84644633099422
 20
7.941315968617191
 30
0.0
 11
18.25778663971648
 21
7.941315968617191
 31
0.0
  0
LINE
  5
94EF
330
8C68
100
AcDbEntity
  8
DIM
100
AcDbLine
 10
21.04644633099423
 20
15.58131596861719
 30
0.0
 11
18.25778663971648
 21
15.58131596861719
 31
0.0
  0
LINE
  5
94F0
330
8C68
100
AcDbEntity
  8
DIM
100
AcDbLine
 10
18.38278663971648
 20
8.081315968617191
 30
0.0
 11
18.38278663971648
 21
11.58131596861719
 31
0.0
  0
LINE
  5
94F1
330
8C68
100
AcDbEntity
  8
DIM
100
AcDbLine
 10
18.38278663971648
 20
15.44131596861719
 30
0.0
 11
18.38278663971648
 21
11.94131596861719
 31
0.0
  0
INSERT
  5
94F2
330
8C68
100
AcDbEntity
  8
DIM
100
AcDbBlockReference
  2
SEARROW
 10
18.38278663971648
 20
7.941315968617191
 30
0.0
 41
0.14
 42
0.14
 43
0.14
 50
270.0
  0
INSERT
  5
94F3
330
8C68
100
AcDbEntity
  8
DIM
100
AcDbBlockReference
  2
SEARROW
 10
18.38278663971648
 20
15.58131596861719
 30
0.0
 41
0.14
 42
0.14
 43
0.14
 50
90.0
  0
MTEXT
  5
94F4
330
8C68
100
AcDbEntity
  8
DIM
100
AcDbMText
 10
18.38278663971648
 20
11.76131596861719
 30
0.0
 40
0.2
 41
0.0
 71
     5
 72
     1
  1
\A1;7.64
  7
ROMANS
1001
ACAD
1000
MTEXTBEGIN
1070
    73
1070
     1
1070
    44
1040
1.0
1070
    74
1070
     0
1000
MTEXTEND
  0
POINT
  5
94F5
330
8C68
100
AcDbEntity
  8
DEFPOINTS
 62
     0
100
AcDbPoint
 10
20.97144633099421
 20
7.941315968617191
 30
0.0
  0
POINT
  5
94F6
330
8C68
100
AcDbEntity
  8
DEFPOINTS
 62
     0
100
AcDbPoint
 10
21.17144633099422
 20
15.58131596861719
 30
0.0
  0
POINT
  5
94F7
330
8C68
100
AcDbEntity
  8
DEFPOINTS
 62
     0
100
AcDbPoint
 10
18.38278663971648
 20
15.58131596861719
 30
0.0
  0
ENDBLK
  5
8C74
330
8C68
100
AcDbEntity
  8
0
100
AcDbBlockEnd
  0
BLOCK
  5
8C81
330
8C75
100
AcDbEntity
  8
0
100
AcDbBlockBegin
  2
*D25
 70
     1
 10
0.0
 20
0.0
 30
0.0
  3
*D25
  1

  0
LINE
  5
955E
330
8C75
100
AcDbEntity
  8
DIM
100
AcDbLine
 10
22.22644633099422
 20
12.06381596861718
 30
0.0
 11
22.89786401839444
 21
12.06381596861718
 31
0.0
  0
LINE
  5
955F
330
8C75
100
AcDbEntity
  8
DIM
100
AcDbLine
 10
22.22644633099422
 20
12.30381596861718
 30
0.0
 11
22.89786401839444
 21
12.30381596861718
 31
0.0
  0
LINE
  5
9560
330
8C75
100
AcDbEntity
  8
DIM
100
AcDbLine
 10
22.77286401839444
 20
11.92381596861718
 30
0.0
 11
22.77286401839444
 21
11.78381596861718
 31
0.0
  0
LINE
  5
9561
330
8C75
100
AcDbEntity
  8
DIM
100
AcDbLine
 10
22.77286401839444
 20
12.44381596861718
 30
0.0
 11
22.77286401839444
 21
12.58381596861718
 31
0.0
  0
LINE
  5
9562
330
8C75
100
AcDbEntity
  8
DIM
100
AcDbLine
 10
22.77286401839444
 20
12.58381596861718
 30
0.0
 11
22.91286401839444
 21
12.58381596861718
 31
0.0
  0
INSERT
  5
9563
330
8C75
100
AcDbEntity
  8
DIM
100
AcDbBlockReference
  2
SEARROW
 10
22.77286401839444
 20
12.06381596861718
 30
0.0
 41
0.14
 42
0.14
 43
0.14
 50
90.0
  0
INSERT
  5
9564
330
8C75
100
AcDbEntity
  8
DIM
100
AcDbBlockReference
  2
SEARROW
 10
22.77286401839444
 20
12.30381596861718
 30
0.0
 41
0.14
 42
0.14
 43
0.14
 50
270.0
  0
MTEXT
  5
9565
330
8C75
100
AcDbEntity
  8
DIM
100
AcDbMText
 10
23.20238782791824
 20
12.58381596861719
 30
0.0
 40
0.2
 41
0.0
 71
     5
 72
     1
  1
\A1;.24
  7
ROMANS
1001
ACAD
1000
MTEXTBEGIN
1070
    73
1070
     1
1070
    44
1040
1.0
1070
    74
1070
     0
1000
MTEXTEND
  0
POINT
  5
9566
330
8C75
100
AcDbEntity
  8
DEFPOINTS
 62
     0
100
AcDbPoint
 10
22.10144633099422
 20
12.06381596861718
 30
0.0
  0
POINT
  5
9567
330
8C75
100
AcDbEntity
  8
DEFPOINTS
 62
     0
100
AcDbPoint
 10
22.10144633099421
 20
12.30381596861718
 30
0.0
  0
POINT
  5
9568
330
8C75
100
AcDbEntity
  8
DEFPOINTS
 62
     0
100
AcDbPoint
 10
22.77286401839444
 20
12.30381596861718
 30
0.0
  0
ENDBLK
  5
8C82
330
8C75
100
AcDbEntity
  8
0
100
AcDbBlockEnd
  0
BLOCK
  5
8C8A
330
8C83
100
AcDbEntity
  8
0
100
AcDbBlockBegin
  2
*D26
 70
     1
 10
0.0
 20
0.0
 30
0.0
  3
*D26
  1

  0
LINE
  5
9558
330
8C83
100
AcDbEntity
  8
DIM
100
AcDbLine
 10
22.92267887922238
 20
11.15669125315103
 30
0.0
 11
22.78267887922237
 21
11.15669125315103
 31
0.0
  0
LINE
  5
9559
330
8C83
100
AcDbEntity
  8
DIM
100
AcDbLine
 10
22.78267887922237
 20
11.15669125315103
 30
0.0
 11
22.51796979401152
 21
10.87102388793276
 31
0.0
  0
MTEXT
  5
955A
330
8C83
100
AcDbEntity
  8
DIM
100
AcDbMText
 10
23.27410745065095
 20
11.15669125315103
 30
0.0
 40
0.2
 41
0.0
 71
     5
 72
     1
  1
\A1;\U+2205.21
  7
ROMANS
1001
ACAD
1000
MTEXTBEGIN
1070
    73
1070
     1
1070
    44
1040
1.0
1070
    74
1070
     0
1000
MTEXTEND
  0
INSERT
  5
955B
330
8C83
100
AcDbEntity
  8
DIM
100
AcDbBlockReference
  2
SEARROW
 10
22.42281352943021
 20
10.76833364832387
 30
0.0
 41
0.14
 42
0.14
 43
0.14
 50
227.1807638489669
  0
POINT
  5
955C
330
8C83
100
AcDbEntity
  8
DEFPOINTS
 62
     0
100
AcDbPoint
 10
22.42281352943021
 20
10.76833364832387
 30
0.0
  0
POINT
  5
955D
330
8C83
100
AcDbEntity
  8
DEFPOINTS
 62
     0
100
AcDbPoint
 10
22.28007913255824
 20
10.61429828891052
 30
0.0
  0
ENDBLK
  5
8C8B
330
8C83
100
AcDbEntity
  8
0
100
AcDbBlockEnd
  0
BLOCK
  5
8C93
330
8C8C
100
AcDbEntity
  8
0
100
AcDbBlockBegin
  2
*D27
 70
     1
 10
0.0
 20
0.0
 30
0.0
  3
*D27
  1

  0
LINE
  5
9534
330
8C8C
100
AcDbEntity
  8
DIM
100
AcDbLine
 10
22.92267887922238
 20
8.716782785180418
 30
0.0
 11
22.78267887922235
 21
8.71678278518042
 31
0.0
  0
LINE
  5
9535
330
8C8C
100
AcDbEntity
  8
DIM
100
AcDbLine
 10
22.78267887922235
 20
8.71678278518042
 30
0.0
 11
22.54265515621891
 21
8.524496206102945
 31
0.0
  0
MTEXT
  5
9536
330
8C8C
100
AcDbEntity
  8
DIM
100
AcDbMText
 10
23.6169645935081
 20
8.71678278518042
 30
0.0
 40
0.2
 41
0.0
 71
     5
 72
     1
  1
\A1;\P\U+2205.21x.29\PSLOT
  7
ROMANS
1001
ACAD
1000
MTEXTBEGIN
1070
    73
1070
     1
1070
    44
1040
1.0
1070
    74
1070
     0
1000
MTEXTEND
  0
INSERT
  5
9537
330
8C8C
100
AcDbEntity
  8
DIM
100
AcDbBlockReference
  2
SEARROW
 10
22.43339297037623
 20
8.436964641825372
 30
0.0
 41
0.14
 42
0.14
 43
0.14
 50
218.6987374673547
  0
POINT
  5
9538
330
8C8C
100
AcDbEntity
  8
DEFPOINTS
 62
     0
100
AcDbPoint
 10
22.43339297037623
 20
8.436964641825372
 30
0.0
  0
POINT
  5
9539
330
8C8C
100
AcDbEntity
  8
DEFPOINTS
 62
     0
100
AcDbPoint
 10
22.26949969161221
 20
8.305667295409023
 30
0.0
  0
ENDBLK
  5
8C94
330
8C8C
100
AcDbEntity
  8
0
100
AcDbBlockEnd
  0
BLOCK
  5
8CA0
330
8C95
100
AcDbEntity
  8
0
100
AcDbBlockBegin
  2
*D28
 70
     1
 10
0.0
 20
0.0
 30
0.0
  3
*D28
  1

  0
LINE
  5
94F8
330
8C95
100
AcDbEntity
  8
DIM
100
AcDbLine
 10
15.98942464324123
 20
12.57881596861718
 30
0.0
 11
15.98942464324123
 21
16.52417082007715
 31
0.0
  0
LINE
  5
94F9
330
8C95
100
AcDbEntity
  8
DIM
100
AcDbLine
 10
17.63942464324122
 20
15.70631596861719
 30
0.0
 11
17.63942464324122
 21
16.52417082007715
 31
0.0
  0
LINE
  5
94FA
330
8C95
100
AcDbEntity
  8
DIM
100
AcDbLine
 10
16.12942464324123
 20
16.39917082007714
 30
0.0
 11
16.44394845276503
 21
16.39917082007714
 31
0.0
  0
LINE
  5
94FB
330
8C95
100
AcDbEntity
  8
DIM
100
AcDbLine
 10
17.49942464324122
 20
16.39917082007714
 30
0.0
 11
17.18490083371741
 21
16.39917082007714
 31
0.0
  0
INSERT
  5
94FC
330
8C95
100
AcDbEntity
  8
DIM
100
AcDbBlockReference
  2
SEARROW
 10
15.98942464324123
 20
16.39917082007714
 30
0.0
 41
0.14
 42
0.14
 43
0.14
 50
180.0
  0
INSERT
  5
94FD
330
8C95
100
AcDbEntity
  8
DIM
100
AcDbBlockReference
  2
SEARROW
 10
17.63942464324122
 20
16.39917082007714
 30
0.0
 41
0.14
 42
0.14
 43
0.14
  0
MTEXT
  5
94FE
330
8C95
100
AcDbEntity
  8
DIM
100
AcDbMText
 10
16.81442464324122
 20
16.39917082007714
 30
0.0
 40
0.2
 41
0.0
 71
     5
 72
     1
  1
\A1;1.65
  7
ROMANS
1001
ACAD
1000
MTEXTBEGIN
1070
    73
1070
     1
1070
    44
1040
1.0
1070
    74
1070
     0
1000
MTEXTEND
  0
POINT
  5
94FF
330
8C95
100
AcDbEntity
  8
DEFPOINTS
 62
     0
100
AcDbPoint
 10
15.98942464324123
 20
12.45381596861719
 30
0.0
  0
POINT
  5
9500
330
8C95
100
AcDbEntity
  8
DEFPOINTS
 62
     0
100
AcDbPoint
 10
17.63942464324122
 20
15.58131596861719
 30
0.0
  0
POINT
  5
9501
330
8C95
100
AcDbEntity
  8
DEFPOINTS
 62
     0
100
AcDbPoint
 10
17.63942464324122
 20
16.39917082007714
 30
0.0
  0
ENDBLK
  5
8CA1
330
8C95
100
AcDbEntity
  8
0
100
AcDbBlockEnd
  0
BLOCK
  5
8CAD
330
8CA2
100
AcDbEntity
  8
0
100
AcDbBlockBegin
  2
*D29
 70
     1
 10
0.0
 20
0.0
 30
0.0
  3
*D29
  1

  0
LINE
  5
9520
330
8CA2
100
AcDbEntity
  8
DIM
100
AcDbLine
 10
16.25942464324122
 20
15.70631596861719
 30
0.0
 11
16.25942464324122
 21
16.14686888320347
 31
0.0
  0
LINE
  5
9521
330
8CA2
100
AcDbEntity
  8
DIM
100
AcDbLine
 10
17.63942464324122
 20
15.70631596861719
 30
0.0
 11
17.63942464324122
 21
16.14686888320347
 31
0.0
  0
LINE
  5
9522
330
8CA2
100
AcDbEntity
  8
DIM
100
AcDbLine
 10
16.39942464324122
 20
16.02186888320347
 30
0.0
 11
16.57894845276503
 21
16.02186888320347
 31
0.0
  0
LINE
  5
9523
330
8CA2
100
AcDbEntity
  8
DIM
100
AcDbLine
 10
17.49942464324122
 20
16.02186888320347
 30
0.0
 11
17.31990083371741
 21
16.02186888320347
 31
0.0
  0
INSERT
  5
9524
330
8CA2
100
AcDbEntity
  8
DIM
100
AcDbBlockReference
  2
SEARROW
 10
16.25942464324122
 20
16.02186888320347
 30
0.0
 41
0.14
 42
0.14
 43
0.14
 50
180.0
  0
INSERT
  5
9525
330
8CA2
100
AcDbEntity
  8
DIM
100
AcDbBlockReference
  2
SEARROW
 10
17.63942464324122
 20
16.02186888320347
 30
0.0
 41
0.14
 42
0.14
 43
0.14
  0
MTEXT
  5
9526
330
8CA2
100
AcDbEntity
  8
DIM
100
AcDbMText
 10
16.94942464324122
 20
16.02186888320347
 30
0.0
 40
0.2
 41
0.0
 71
     5
 72
     1
  1
\A1;1.38
  7
ROMANS
1001
ACAD
1000
MTEXTBEGIN
1070
    73
1070
     1
1070
    44
1040
1.0
1070
    74
1070
     0
1000
MTEXTEND
  0
POINT
  5
9527
330
8CA2
100
AcDbEntity
  8
DEFPOINTS
 62
     0
100
AcDbPoint
 10
16.25942464324122
 20
15.58131596861719
 30
0.0
  0
POINT
  5
9528
330
8CA2
100
AcDbEntity
  8
DEFPOINTS
 62
     0
100
AcDbPoint
 10
17.63942464324122
 20
15.58131596861719
 30
0.0
  0
POINT
  5
9529
330
8CA2
100
AcDbEntity
  8
DEFPOINTS
 62
     0
100
AcDbPoint
 10
17.63942464324122
 20
16.02186888320347
 30
0.0
  0
ENDBLK
  5
8CAE
330
8CA2
100
AcDbEntity
  8
0
100
AcDbBlockEnd
  0
BLOCK
  5
8CBA
330
8CAF
100
AcDbEntity
  8
0
100
AcDbBlockBegin
  2
*D30
 70
     1
 10
0.0
 20
0.0
 30
0.0
  3
*D30
  1

  0
LINE
  5
9502
330
8CAF
100
AcDbEntity
  8
DIM
100
AcDbLine
 10
15.90942464324122
 20
7.903815968617193
 30
0.0
 11
15.90942464324122
 21
6.861851410143927
 31
0.0
  0
LINE
  5
9503
330
8CAF
100
AcDbEntity
  8
DIM
100
AcDbLine
 10
17.63942464324122
 20
7.816315968617194
 30
0.0
 11
17.63942464324122
 21
6.861851410143927
 31
0.0
  0
LINE
  5
9504
330
8CAF
100
AcDbEntity
  8
DIM
100
AcDbLine
 10
16.04942464324122
 20
6.986851410143927
 30
0.0
 11
16.40394845276503
 21
6.986851410143927
 31
0.0
  0
LINE
  5
9505
330
8CAF
100
AcDbEntity
  8
DIM
100
AcDbLine
 10
17.49942464324122
 20
6.986851410143927
 30
0.0
 11
17.14490083371741
 21
6.986851410143927
 31
0.0
  0
INSERT
  5
9506
330
8CAF
100
AcDbEntity
  8
DIM
100
AcDbBlockReference
  2
SEARROW
 10
15.90942464324122
 20
6.986851410143927
 30
0.0
 41
0.14
 42
0.14
 43
0.14
 50
180.0
  0
INSERT
  5
9507
330
8CAF
100
AcDbEntity
  8
DIM
100
AcDbBlockReference
  2
SEARROW
 10
17.63942464324122
 20
6.986851410143927
 30
0.0
 41
0.14
 42
0.14
 43
0.14
  0
MTEXT
  5
9508
330
8CAF
100
AcDbEntity
  8
DIM
100
AcDbMText
 10
16.77442464324122
 20
6.986851410143927
 30
0.0
 40
0.2
 41
0.0
 71
     5
 72
     1
  1
\A1;1.73
  7
ROMANS
1001
ACAD
1000
MTEXTBEGIN
1070
    73
1070
     1
1070
    44
1040
1.0
1070
    74
1070
     0
1000
MTEXTEND
  0
POINT
  5
9509
330
8CAF
100
AcDbEntity
  8
DEFPOINTS
 62
     0
100
AcDbPoint
 10
15.90942464324122
 20
8.028815968617193
 30
0.0
  0
POINT
  5
950A
330
8CAF
100
AcDbEntity
  8
DEFPOINTS
 62
     0
100
AcDbPoint
 10
17.63942464324122
 20
7.941315968617194
 30
0.0
  0
POINT
  5
950B
330
8CAF
100
AcDbEntity
  8
DEFPOINTS
 62
     0
100
AcDbPoint
 10
17.63942464324122
 20
6.986851410143927
 30
0.0
  0
ENDBLK
  5
8CBB
330
8CAF
100
AcDbEntity
  8
0
100
AcDbBlockEnd
  0
BLOCK
  5
8CC7
330
8CBC
100
AcDbEntity
  8
0
100
AcDbBlockBegin
  2
*D31
 70
     1
 10
0.0
 20
0.0
 30
0.0
  3
*D31
  1

  0
LINE
  5
950C
330
8CBC
100
AcDbEntity
  8
DIM
100
AcDbLine
 10
16.31942464324122
 20
7.816315968617191
 30
0.0
 11
16.31942464324122
 21
7.286715449437098
 31
0.0
  0
LINE
  5
950D
330
8CBC
100
AcDbEntity
  8
DIM
100
AcDbLine
 10
17.63942464324122
 20
7.816315968617191
 30
0.0
 11
17.63942464324122
 21
7.286715449437098
 31
0.0
  0
LINE
  5
950E
330
8CBC
100
AcDbEntity
  8
DIM
100
AcDbLine
 10
16.45942464324122
 20
7.411715449437098
 30
0.0
 11
16.60894845276503
 21
7.411715449437098
 31
0.0
  0
LINE
  5
950F
330
8CBC
100
AcDbEntity
  8
DIM
100
AcDbLine
 10
17.49942464324122
 20
7.411715449437098
 30
0.0
 11
17.34990083371741
 21
7.411715449437098
 31
0.0
  0
INSERT
  5
9510
330
8CBC
100
AcDbEntity
  8
DIM
100
AcDbBlockReference
  2
SEARROW
 10
16.31942464324122
 20
7.411715449437098
 30
0.0
 41
0.14
 42
0.14
 43
0.14
 50
180.0
  0
INSERT
  5
9511
330
8CBC
100
AcDbEntity
  8
DIM
100
AcDbBlockReference
  2
SEARROW
 10
17.63942464324122
 20
7.411715449437098
 30
0.0
 41
0.14
 42
0.14
 43
0.14
  0
MTEXT
  5
9512
330
8CBC
100
AcDbEntity
  8
DIM
100
AcDbMText
 10
16.97942464324122
 20
7.411715449437098
 30
0.0
 40
0.2
 41
0.0
 71
     5
 72
     1
  1
\A1;1.32
  7
ROMANS
1001
ACAD
1000
MTEXTBEGIN
1070
    73
1070
     1
1070
    44
1040
1.0
1070
    74
1070
     0
1000
MTEXTEND
  0
POINT
  5
9513
330
8CBC
100
AcDbEntity
  8
DEFPOINTS
 62
     0
100
AcDbPoint
 10
16.31942464324122
 20
7.941315968617191
 30
0.0
  0
POINT
  5
9514
330
8CBC
100
AcDbEntity
  8
DEFPOINTS
 62
     0
100
AcDbPoint
 10
17.63942464324122
 20
7.941315968617191
 30
0.0
  0
POINT
  5
9515
330
8CBC
100
AcDbEntity
  8
DEFPOINTS
 62
     0
100
AcDbPoint
 10
17.63942464324122
 20
7.411715449437098
 30
0.0
  0
ENDBLK
  5
8CC8
330
8CBC
100
AcDbEntity
  8
0
100
AcDbBlockEnd
  0
BLOCK
  5
8CD4
330
8CC9
100
AcDbEntity
  8
0
100
AcDbBlockBegin
  2
*D32
 70
     1
 10
0.0
 20
0.0
 30
0.0
  3
*D32
  1

  0
LINE
  5
9516
330
8CC9
100
AcDbEntity
  8
DIM
100
AcDbLine
 10
15.83242464324121
 20
10.80381596861719
 30
0.0
 11
15.34609672674694
 21
10.80381596861719
 31
0.0
  0
LINE
  5
9517
330
8CC9
100
AcDbEntity
  8
DIM
100
AcDbLine
 10
15.86442464324123
 20
12.18381596861719
 30
0.0
 11
15.34609672674694
 21
12.18381596861719
 31
0.0
  0
LINE
  5
9518
330
8CC9
100
AcDbEntity
  8
DIM
100
AcDbLine
 10
15.47109672674694
 20
10.94381596861719
 30
0.0
 11
15.47109672674694
 21
11.3138159686172
 31
0.0
  0
LINE
  5
9519
330
8CC9
100
AcDbEntity
  8
DIM
100
AcDbLine
 10
15.47109672674694
 20
12.04381596861719
 30
0.0
 11
15.47109672674694
 21
11.67381596861719
 31
0.0
  0
INSERT
  5
951A
330
8CC9
100
AcDbEntity
  8
DIM
100
AcDbBlockReference
  2
SEARROW
 10
15.47109672674694
 20
10.80381596861719
 30
0.0
 41
0.14
 42
0.14
 43
0.14
 50
270.0
  0
INSERT
  5
951B
330
8CC9
100
AcDbEntity
  8
DIM
100
AcDbBlockReference
  2
SEARROW
 10
15.47109672674694
 20
12.18381596861719
 30
0.0
 41
0.14
 42
0.14
 43
0.14
 50
90.0
  0
MTEXT
  5
951C
330
8CC9
100
AcDbEntity
  8
DIM
100
AcDbMText
 10
15.47109672674694
 20
11.4938159686172
 30
0.0
 40
0.2
 41
0.0
 71
     5
 72
     1
  1
\A1;1.38
  7
ROMANS
1001
ACAD
1000
MTEXTBEGIN
1070
    73
1070
     1
1070
    44
1040
1.0
1070
    74
1070
     0
1000
MTEXTEND
  0
POINT
  5
951D
330
8CC9
100
AcDbEntity
  8
DEFPOINTS
 62
     0
100
AcDbPoint
 10
15.95742464324121
 20
10.80381596861719
 30
0.0
  0
POINT
  5
951E
330
8CC9
100
AcDbEntity
  8
DEFPOINTS
 62
     0
100
AcDbPoint
 10
15.98942464324123
 20
12.18381596861719
 30
0.0
  0
POINT
  5
951F
330
8CC9
100
AcDbEntity
  8
DEFPOINTS
 62
     0
100
AcDbPoint
 10
15.47109672674694
 20
12.18381596861719
 30
0.0
  0
ENDBLK
  5
8CD5
330
8CC9
100
AcDbEntity
  8
0
100
AcDbBlockEnd
  0
BLOCK
  5
8EAF
330
8EA4
100
AcDbEntity
  8
0
100
AcDbBlockBegin
  2
*D33
 70
     1
 10
0.0
 20
0.0
 30
0.0
  3
*D33
  1

  0
LINE
  5
957D
330
8EA4
100
AcDbEntity
  8
DIM
100
AcDbLine
 10
32.33809446691795
 20
14.26381596861718
 30
0.0
 11
32.33809446691795
 21
16.52417082007715
 31
0.0
  0
LINE
  5
957E
330
8EA4
100
AcDbEntity
  8
DIM
100
AcDbLine
 10
29.34809446691795
 20
15.70631596861719
 30
0.0
 11
29.34809446691795
 21
16.52417082007715
 31
0.0
  0
LINE
  5
957F
330
8EA4
100
AcDbEntity
  8
DIM
100
AcDbLine
 10
32.19809446691795
 20
16.39917082007714
 30
0.0
 11
31.22309446691795
 21
16.39917082007714
 31
0.0
  0
LINE
  5
9580
330
8EA4
100
AcDbEntity
  8
DIM
100
AcDbLine
 10
29.48809446691795
 20
16.39917082007714
 30
0.0
 11
30.46309446691795
 21
16.39917082007714
 31
0.0
  0
INSERT
  5
9581
330
8EA4
100
AcDbEntity
  8
DIM
100
AcDbBlockReference
  2
SEARROW
 10
32.33809446691795
 20
16.39917082007714
 30
0.0
 41
0.14
 42
0.14
 43
0.14
  0
INSERT
  5
9582
330
8EA4
100
AcDbEntity
  8
DIM
100
AcDbBlockReference
  2
SEARROW
 10
29.34809446691795
 20
16.39917082007714
 30
0.0
 41
0.14
 42
0.14
 43
0.14
 50
180.0
  0
MTEXT
  5
9583
330
8EA4
100
AcDbEntity
  8
DIM
100
AcDbMText
 10
30.84309446691795
 20
16.39917082007714
 30
0.0
 40
0.2
 41
0.0
 71
     5
 72
     1
  1
\A1;2.99
  7
ROMANS
1001
ACAD
1000
MTEXTBEGIN
1070
    73
1070
     1
1070
    44
1040
1.0
1070
    74
1070
     0
1000
MTEXTEND
  0
POINT
  5
9584
330
8EA4
100
AcDbEntity
  8
DEFPOINTS
 62
     0
100
AcDbPoint
 10
32.33809446691795
 20
14.13881596861718
 30
0.0
  0
POINT
  5
9585
330
8EA4
100
AcDbEntity
  8
DEFPOINTS
 62
     0
100
AcDbPoint
 10
29.34809446691795
 20
15.58131596861719
 30
0.0
  0
POINT
  5
9586
330
8EA4
100
AcDbEntity
  8
DEFPOINTS
 62
     0
100
AcDbPoint
 10
29.34809446691795
 20
16.39917082007714
 30
0.0
  0
ENDBLK
  5
8EB0
330
8EA4
100
AcDbEntity
  8
0
100
AcDbBlockEnd
  0
BLOCK
  5
8EC8
330
8EBC
100
AcDbEntity
  8
0
100
AcDbBlockBegin
  2
*D34
 70
     1
 10
0.0
 20
0.0
 30
0.0
  3
*D34
  1

  0
LINE
  5
9587
330
8EBC
100
AcDbEntity
  8
DIM
100
AcDbLine
 10
29.67309446691795
 20
12.06381596861718
 30
0.0
 11
28.8711443313103
 21
12.06381596861718
 31
0.0
  0
LINE
  5
9588
330
8EBC
100
AcDbEntity
  8
DIM
100
AcDbLine
 10
29.67309446691795
 20
12.30381596861718
 30
0.0
 11
28.8711443313103
 21
12.30381596861718
 31
0.0
  0
LINE
  5
9589
330
8EBC
100
AcDbEntity
  8
DIM
100
AcDbLine
 10
28.99614433131031
 20
12.44381596861718
 30
0.0
 11
28.99614433131031
 21
12.58381596861718
 31
0.0
  0
LINE
  5
958A
330
8EBC
100
AcDbEntity
  8
DIM
100
AcDbLine
 10
28.99614433131031
 20
11.92381596861718
 30
0.0
 11
28.99614433131031
 21
11.78381596861718
 31
0.0
  0
LINE
  5
958B
330
8EBC
100
AcDbEntity
  8
DIM
100
AcDbLine
 10
28.99614433131031
 20
11.78381596861718
 30
0.0
 11
28.8561443313103
 21
11.78381596861718
 31
0.0
  0
INSERT
  5
958C
330
8EBC
100
AcDbEntity
  8
DIM
100
AcDbBlockReference
  2
SEARROW
 10
28.99614433131031
 20
12.30381596861718
 30
0.0
 41
0.14
 42
0.14
 43
0.14
 50
270.0
  0
INSERT
  5
958D
330
8EBC
100
AcDbEntity
  8
DIM
100
AcDbBlockReference
  2
SEARROW
 10
28.99614433131031
 20
12.06381596861718
 30
0.0
 41
0.14
 42
0.14
 43
0.14
 50
90.0
  0
MTEXT
  5
958E
330
8EBC
100
AcDbEntity
  8
DIM
100
AcDbMText
 10
28.56662052178649
 20
11.78381596861719
 30
0.0
 40
0.2
 41
0.0
 71
     5
 72
     1
  1
\A1;.24
  7
ROMANS
1001
ACAD
1000
MTEXTBEGIN
1070
    73
1070
     1
1070
    44
1040
1.0
1070
    74
1070
     0
1000
MTEXTEND
  0
POINT
  5
958F
330
8EBC
100
AcDbEntity
  8
DEFPOINTS
 62
     0
100
AcDbPoint
 10
29.79809446691795
 20
12.06381596861718
 30
0.0
  0
POINT
  5
9590
330
8EBC
100
AcDbEntity
  8
DEFPOINTS
 62
     0
100
AcDbPoint
 10
29.79809446691795
 20
12.30381596861718
 30
0.0
  0
POINT
  5
9591
330
8EBC
100
AcDbEntity
  8
DEFPOINTS
 62
     0
100
AcDbPoint
 10
28.99614433131031
 20
12.30381596861718
 30
0.0
  0
ENDBLK
  5
8EC9
330
8EBC
100
AcDbEntity
  8
0
100
AcDbBlockEnd
  0
ENDSEC
  0
SECTION
  2
ENTITIES
  0
INSERT
  5
79E
330
1F
100
AcDbEntity
  8
0
100
AcDbBlockReference
  2
NEWLAYERS
 10
0.0
 20
0.0
 30
0.0
 41
0.01
 42
0.01
 43
0.01
  0
LWPOLYLINE
  5
BF7
330
1F
100
AcDbEntity
  8
VIEWPORT
100
AcDbPolyline
 90
        6
 70
     1
 43
0.0
 10
32.80000199999999
 20
20.5
 10
32.80000199999999
 20
1.824003999999998
 10
16.004922
 20
1.824003999999998
 10
16.004922
 20
0.0
 10
0.0
 20
0.0
 10
0.0
 20
20.5
1001
GENIUS_GENOREF_13
1005
0
1005
0
1005
0
1005
0
1005
0
1005
0
1005
0
1005
0
1005
0
1005
0
1005
0
1005
0
1005
0
1005
0
1005
0
  0
VIEWPORT
  5
BF8
330
1F
100
AcDbEntity
  8
VIEWPORT
100
AcDbViewport
 10
16.40000099999999
 20
10.25
 30
0.0
 40
32.80000199999999
 41
20.5
 69
     0
1001
ACAD
1000
MVIEW
1002
{
1070
    16
1010
0.0
1020
0.0
1030
0.0
1010
0.0
1020
0.0
1030
1.0
1040
0.0
1040
10.25
1040
8.193386135163111
1040
5.146330469914577
1040
50.0
1040
0.0
1040
0.0
1070
     0
1070
   100
1070
     1
1070
     2
1070
     0
1070
     0
1070
     0
1070
     0
1040
0.0
1040
0.0
1040
0.0
1040
0.5
1040
0.5
1040
0.5
1040
0.5
1070
     0
1002
{
1002
}
1002
}
1001
GENIUS_GENOREF_13
1005
0
1005
0
1005
0
1005
0
1005
0
1005
0
1005
0
1005
0
1005
0
1005
0
1005
0
1005
0
1005
0
1005
0
1005
0
1001
GENIUS_GENSCREG_15
1000
PF
1040
0.0
1000
DF
1040
0.0
1000
MIN
1011
0.0
1021
0.0
1031
0.0
1000
MAX
1011
32.80000199999999
1021
20.5
1031
0.0
1000
FLAGS
1070
     2
  0
MTEXT
  5
2517
330
1F
100
AcDbEntity
  8
0
100
AcDbMText
 10
22.11248634229724
 20
14.94238675539585
 30
0.0
 40
0.2
 41
0.0
 71
     1
 72
     1
  1

  7
ROMANS
1001
ACAD
1000
MTEXTBEGIN
1070
    73
1070
     1
1070
    44
1040
1.0
1070
    74
1070
     0
1000
MTEXTEND
1000
MTEXTBEGIN
1070
    73
1070
     1
1070
    44
1040
1.0
1070
    74
1070
     0
1000
MTEXTEND
1000
MTEXTBEGIN
1070
    73
1070
     1
1070
    44
1040
1.0
1070
    74
1070
     0
1000
MTEXTEND
1000
MTEXTBEGIN
1070
    73
1070
     1
1070
    44
1040
1.0
1070
    74
1070
     0
1000
MTEXTEND
1000
MTEXTBEGIN
1070
    73
1070
     1
1070
    44
1040
1.0
1070
    74
1070
     0
1000
MTEXTEND
  0
MTEXT
  5
2C37
330
1F
100
AcDbEntity
  8
0
100
AcDbMText
 10
21.60475124642927
 20
14.6078052277492
 30
0.0
 40
0.2
 41
0.0
 71
     1
 72
     1
  1

  7
ROMANS
1001
ACAD
1000
MTEXTBEGIN
1070
    73
1070
     1
1070
    44
1040
1.0
1070
    74
1070
     0
1000
MTEXTEND
1000
MTEXTBEGIN
1070
    73
1070
     1
1070
    44
1040
1.0
1070
    74
1070
     0
1000
MTEXTEND
1000
MTEXTBEGIN
1070
    73
1070
     1
1070
    44
1040
1.0
1070
    74
1070
     0
1000
MTEXTEND
1000
MTEXTBEGIN
1070
    73
1070
     1
1070
    44
1040
1.0
1070
    74
1070
     0
1000
MTEXTEND
  0
LINE
  5
783D
330
1F
100
AcDbEntity
  8
CONTINUOUS1
100
AcDbLine
 10
29.59809446691794
 20
15.44131596861719
 30
0.0
 11
29.34809446691795
 21
15.44131596861719
 31
0.0
  0
LINE
  5
783E
330
1F
100
AcDbEntity
  8
CONTINUOUS1
100
AcDbLine
 10
29.59809446691794
 20
15.38131596861718
 30
0.0
 11
29.34809446691795
 21
15.38131596861718
 31
0.0
  0
LINE
  5
783F
330
1F
100
AcDbEntity
  8
CONTINUOUS1
100
AcDbLine
 10
29.45309446691794
 20
15.47363710868246
 30
0.0
 11
29.49309446691795
 21
15.47363710868246
 31
0.0
  0
ARC
  5
7840
330
1F
100
AcDbEntity
  8
CONTINUOUS1
100
AcDbCircle
 10
29.47309446691795
 20
15.40285345021659
 30
0.0
 40
0.1307836584658657
100
AcDbArc
 50
98.7964325055179
 51
162.8968607080939
  0
ARC
  5
7841
330
1F
100
AcDbEntity
  8
CONTINUOUS1
100
AcDbCircle
 10
29.47309446691795
 20
15.40285345021659
 30
0.0
 40
0.1307836584658657
100
AcDbArc
 50
17.10313929190604
 51
81.20356749448211
  0
LINE
  5
7842
330
1F
100
AcDbEntity
  8
CONTINUOUS1
100
AcDbLine
 10
29.49309446691795
 20
15.53363710868245
 30
0.0
 11
29.49309446691795
 21
15.47363710868246
 31
0.0
  0
LINE
  5
7843
330
1F
100
AcDbEntity
  8
CONTINUOUS1
100
AcDbLine
 10
29.45309446691794
 20
15.53363710868245
 30
0.0
 11
29.45309446691794
 21
15.47363710868246
 31
0.0
  0
LINE
  5
7844
330
1F
100
AcDbEntity
  8
CONTINUOUS1
100
AcDbLine
 10
29.59809446691794
 20
15.58131596861719
 30
0.0
 11
29.59809446691794
 21
15.38131596861718
 31
0.0
  0
TEXT
  5
7934
330
1F
100
AcDbEntity
  8
TEXT1
100
AcDbText
 10
0.3087619047619048
 20
9.629333333333329
 30
0.0
 40
0.1
  1

  7
ROMANS
 11
0.3087619047619048
 21
9.67933333333333
 31
0.0
100
AcDbText
 73
     2
  0
CIRCLE
  5
7DF3
330
1F
100
AcDbEntity
  8
CONTINUOUS1
100
AcDbCircle
 10
29.93809446691793
 20
8.128815968617189
 30
0.0
 40
0.1
  0
LINE
  5
7DF4
330
1F
100
AcDbEntity
  8
0
100
AcDbLine
 10
29.83821954514074
 20
8.123815968617195
 30
0.0
 11
30.03796938869512
 21
8.123815968617197
 31
0.0
  0
LINE
  5
7DF8
330
1F
100
AcDbEntity
  8
0
100
AcDbLine
 10
29.83821954514074
 20
8.133815968617192
 30
0.0
 11
30.03796938869512
 21
8.133815968617195
 31
0.0
  0
LINE
  5
7F6A
330
1F
100
AcDbEntity
  8
CONTINUOUS1
100
AcDbLine
 10
30.47809446691794
 20
15.58131596861719
 30
0.0
 11
30.47809446691794
 21
15.38131596861718
 31
0.0
  0
LINE
  5
7F6B
330
1F
100
AcDbEntity
  8
CONTINUOUS1
100
AcDbLine
 10
30.62309446691794
 20
15.53363710868245
 30
0.0
 11
30.62309446691794
 21
15.47363710868246
 31
0.0
  0
LINE
  5
7F6C
330
1F
100
AcDbEntity
  8
CONTINUOUS1
100
AcDbLine
 10
30.58309446691794
 20
15.53363710868245
 30
0.0
 11
30.58309446691794
 21
15.47363710868246
 31
0.0
  0
ARC
  5
7F6D
330
1F
100
AcDbEntity
  8
CONTINUOUS1
100
AcDbCircle
 10
30.60309446691794
 20
15.40285345021659
 30
0.0
 40
0.1307836584658657
100
AcDbArc
 50
98.7964325055179
 51
162.8968607080939
  0
ARC
  5
7F6E
330
1F
100
AcDbEntity
  8
CONTINUOUS1
100
AcDbCircle
 10
30.60309446691794
 20
15.40285345021659
 30
0.0
 40
0.1307836584658657
100
AcDbArc
 50
17.10313929190605
 51
81.20356749448211
  0
LINE
  5
7F6F
330
1F
100
AcDbEntity
  8
CONTINUOUS1
100
AcDbLine
 10
30.62309446691794
 20
15.47363710868246
 30
0.0
 11
30.58309446691794
 21
15.47363710868246
 31
0.0
  0
LINE
  5
7F70
330
1F
100
AcDbEntity
  8
CONTINUOUS1
100
AcDbLine
 10
30.47809446691794
 20
15.38131596861718
 30
0.0
 11
30.72809446691794
 21
15.38131596861718
 31
0.0
  0
LINE
  5
7F71
330
1F
100
AcDbEntity
  8
CONTINUOUS1
100
AcDbLine
 10
30.47809446691794
 20
15.44131596861719
 30
0.0
 11
30.72809446691794
 21
15.44131596861719
 31
0.0
  0
TEXT
  5
80F7
330
1F
100
AcDbEntity
  8
TEXT1
100
AcDbText
 10
0.5492571428571431
 20
12.75723816848427
 30
0.0
 40
0.16
  1
Weight (oz.)
  7
ROMANS
 11
0.5492571428571431
 21
12.83723816848427
 31
0.0
100
AcDbText
 73
     2
  0
LINE
  5
80F8
330
1F
100
AcDbEntity
  8
CONTINUOUS1
100
AcDbLine
 10
0.4863999999999998
 20
12.59723816848426
 30
0.0
 11
14.9864
 21
12.59723816848426
 31
0.0
1001
GENIUS_GENOREF_13
1005
0
1005
0
1005
0
1005
0
1005
0
1005
0
1005
0
1005
0
1005
0
1005
0
1005
0
1005
0
1005
0
1005
0
1005
0
  0
LINE
  5
80F9
330
1F
100
AcDbEntity
  8
CONTINUOUS1
100
AcDbLine
 10
0.4864000000000014
 20
13.07723816848427
 30
0.0
 11
14.9864
 21
13.07723816848427
 31
0.0
1001
GENIUS_GENOREF_13
1005
0
1005
0
1005
0
1005
0
1005
0
1005
0
1005
0
1005
0
1005
0
1005
0
1005
0
1005
0
1005
0
1005
0
1005
0
  0
TEXT
  5
80FD
330
1F
100
AcDbEntity
  8
TEXT1
100
AcDbText
 10
0.5492571428571431
 20
13.87723816848427
 30
0.0
 40
0.16
  1
N.C.+N.C.+N.O.
  7
ROMANS
 11
0.5492571428571431
 21
13.95723816848427
 31
0.0
100
AcDbText
 73
     2
  0
TEXT
  5
80FE
330
1F
100
AcDbEntity
  8
TEXT1
100
AcDbText
 10
0.5492571428571431
 20
13.55723816848427
 30
0.0
 40
0.16
  1
(N.O. staggered)
  7
ROMANS
 11
0.5492571428571431
 21
13.63723816848427
 31
0.0
100
AcDbText
 73
     2
  0
TEXT
  5
80FF
330
1F
100
AcDbEntity
  8
TEXT1
100
AcDbText
 10
0.5492571428571431
 20
13.23723816848427
 30
0.0
 40
0.16
  1
slow break
  7
ROMANS
 11
0.5492571428571431
 21
13.31723816848427
 31
0.0
100
AcDbText
 73
     2
  0
LINE
  5
8100
330
1F
100
AcDbEntity
  8
CONTINUOUS1
100
AcDbLine
 10
0.4864000000000014
 20
14.19723816848428
 30
0.0
 11
14.9864
 21
14.19723816848427
 31
0.0
1001
GENIUS_GENOREF_13
1005
0
1005
0
1005
0
1005
0
1005
0
1005
0
1005
0
1005
0
1005
0
1005
0
1005
0
1005
0
1005
0
1005
0
1005
0
  0
TEXT
  5
8101
330
1F
100
AcDbEntity
  8
TEXT1
100
AcDbText
 10
0.5492571428571431
 20
14.35723816848428
 30
0.0
 40
0.16
  1
slow break
  7
ROMANS
 11
0.5492571428571431
 21
14.43723816848428
 31
0.0
100
AcDbText
 73
     2
  0
TEXT
  5
8102
330
1F
100
AcDbEntity
  8
TEXT1
100
AcDbText
 10
0.5492571428571431
 20
14.67723816848428
 30
0.0
 40
0.16
  1
(2 N.O. staggered)
  7
ROMANS
 11
0.5492571428571431
 21
14.75723816848428
 31
0.0
100
AcDbText
 73
     2
  0
TEXT
  5
8103
330
1F
100
AcDbEntity
  8
TEXT1
100
AcDbText
 10
0.5492571428571431
 20
14.99723816848427
 30
0.0
 40
0.16
  1
N.C.+N.O.+N.O.
  7
ROMANS
 11
0.5492571428571431
 21
15.07723816848427
 31
0.0
100
AcDbText
 73
     2
  0
LINE
  5
8104
330
1F
100
AcDbEntity
  8
CONTINUOUS1
100
AcDbLine
 10
0.4864000000000005
 20
19.63723816848431
 30
0.0
 11
14.9864
 21
19.63723816848434
 31
0.0
1001
GENIUS_GENOREF_13
1005
0
1005
0
1005
0
1005
0
1005
0
1005
0
1005
0
1005
0
1005
0
1005
0
1005
0
1005
0
1005
0
1005
0
1005
0
  0
LINE
  5
8105
330
1F
100
AcDbEntity
  8
CONTINUOUS1
100
AcDbLine
 10
0.4864000000000005
 20
19.1572381684843
 30
0.0
 11
14.9864
 21
19.1572381684843
 31
0.0
1001
GENIUS_GENOREF_13
1005
0
1005
0
1005
0
1005
0
1005
0
1005
0
1005
0
1005
0
1005
0
1005
0
1005
0
1005
0
1005
0
1005
0
1005
0
  0
TEXT
  5
8106
330
1F
100
AcDbEntity
  8
TEXT1
100
AcDbText
 10
0.5492571428571424
 20
19.31723816848431
 30
0.0
 40
0.16
  1
Type of switch
  7
ROMANS
 11
0.5492571428571424
 21
19.39723816848431
 31
0.0
100
AcDbText
 73
     2
  0
TEXT
  5
8107
330
1F
100
AcDbEntity
  8
TEXT2
100
AcDbText
 10
0.4863999999999999
 20
19.77359999999999
 30
0.0
 40
0.16
  1
Metal, type XCSL, Conduit entry tapped 1/2 NPT - Locking without power
  7
ROMANS
 11
0.4863999999999999
 21
19.85359999999999
 31
0.0
100
AcDbText
 73
     2
  0
LINE
  5
8108
330
1F
100
AcDbEntity
  8
CONTINUOUS1
100
AcDbLine
 10
0.4864000000000014
 20
12.59723816848426
 30
0.0
 11
0.4864000000000005
 21
19.63723816848431
 31
0.0
1001
GENIUS_GENOREF_13
1005
0
1005
0
1005
0
1005
0
1005
0
1005
0
1005
0
1005
0
1005
0
1005
0
1005
0
1005
0
1005
0
1005
0
1005
0
  0
LINE
  5
8113
330
1F
100
AcDbEntity
  8
CONTINUOUS1
100
AcDbLine
 10
7.986400000000001
 20
12.59723816848426
 30
0.0
 11
7.986400000000002
 21
15.79723816848429
 31
0.0
1001
GENIUS_GENOREF_13
1005
0
1005
0
1005
0
1005
0
1005
0
1005
0
1005
0
1005
0
1005
0
1005
0
1005
0
1005
0
1005
0
1005
0
1005
0
  0
TEXT
  5
8122
330
1F
100
AcDbEntity
  8
TEXT1
100
AcDbText
 10
4.550399999999999
 20
19.31723816848431
 30
0.0
 40
0.16
  1
With interlocking, locking electromagnet
  7
ROMANS
 11
4.550399999999999
 21
19.39723816848431
 31
0.0
100
AcDbText
 73
     2
  0
LINE
  5
8123
330
1F
100
AcDbEntity
  8
CONTINUOUS1
100
AcDbLine
 10
1.937490494619712
 20
13.29723816848427
 30
0.0
 11
2.017490494619712
 21
13.29723816848427
 31
0.0
  0
LINE
  5
8124
330
1F
100
AcDbEntity
  8
CONTINUOUS1
100
AcDbLine
 10
1.977490494619711
 20
13.27323816848427
 30
0.0
 11
1.977490494619711
 21
13.36123816848427
 31
0.0
  0
LINE
  5
8125
330
1F
100
AcDbEntity
  8
CONTINUOUS1
100
AcDbLine
 10
1.937490494619712
 20
13.33723816848427
 30
0.0
 11
2.017490494619712
 21
13.33723816848427
 31
0.0
  0
LWPOLYLINE
  5
8126
102
{ACAD_REACTORS
330
8127
102
}
330
1F
100
AcDbEntity
  8
CONTINUOUS1
100
AcDbPolyline
 90
       10
 70
     1
 43
0.0
 10
2.080567195602177
 20
14.46195952803427
 10
2.131312689068644
 20
14.42900501925659
 10
2.109628896722392
 20
14.37251680893428
 10
2.156651716905789
 20
14.41059513791459
 10
2.203674537089187
 20
14.37251680893428
 10
2.181990744742935
 20
14.42900501925659
 10
2.232736238209401
 20
14.46195952803427
 10
2.172312097351024
 20
14.4587928329968
 10
2.156651716905789
 20
14.51723816848428
 10
2.140991336460554
 20
14.4587928329968
  0
HATCH
  5
8127
330
1F
100
AcDbEntity
  8
CONTINUOUS1
100
AcDbHatch
 10
0.0
 20
0.0
 30
0.0
210
0.0
220
0.0
230
1.0
  2
SOLID
 70
     1
 71
     1
 91
        1
 92
        1
 93
       10
 72
     1
 10
2.080567195602177
 20
14.46195952803427
 11
2.131312689068644
 21
14.42900501925659
 72
     1
 10
2.131312689068644
 20
14.42900501925659
 11
2.109628896722392
 21
14.37251680893428
 72
     1
 10
2.109628896722392
 20
14.37251680893428
 11
2.156651716905789
 21
14.41059513791459
 72
     1
 10
2.156651716905789
 20
14.41059513791459
 11
2.203674537089187
 21
14.37251680893428
 72
     1
 10
2.203674537089187
 20
14.37251680893428
 11
2.181990744742935
 21
14.42900501925659
 72
     1
 10
2.181990744742935
 20
14.42900501925659
 11
2.232736238209401
 21
14.46195952803427
 72
     1
 10
2.232736238209401
 20
14.46195952803427
 11
2.172312097351024
 21
14.4587928329968
 72
     1
 10
2.172312097351024
 20
14.4587928329968
 11
2.156651716905789
 21
14.51723816848428
 72
     1
 10
2.156651716905789
 20
14.51723816848428
 11
2.140991336460554
 21
14.4587928329968
 72
     1
 10
2.140991336460554
 20
14.4587928329968
 11
2.080567195602177
 21
14.46195952803427
 97
        1
330
8126
 75
     0
 76
     1
 98
        1
 10
1.516346955001028
 20
4.14497150181763
  0
LINE
  5
8128
330
1F
100
AcDbEntity
  8
CONTINUOUS1
100
AcDbLine
 10
1.937490494619712
 20
14.45723816848428
 30
0.0
 11
2.017490494619712
 21
14.45723816848428
 31
0.0
  0
LINE
  5
8129
330
1F
100
AcDbEntity
  8
CONTINUOUS1
100
AcDbLine
 10
1.977490494619711
 20
14.39323816848428
 30
0.0
 11
1.977490494619711
 21
14.48123816848428
 31
0.0
  0
LINE
  5
812A
330
1F
100
AcDbEntity
  8
CONTINUOUS1
100
AcDbLine
 10
1.937490494619712
 20
14.41723816848428
 30
0.0
 11
2.017490494619712
 21
14.41723816848428
 31
0.0
  0
TEXT
  5
812B
330
1F
100
AcDbEntity
  8
TEXT1
100
AcDbText
 10
4.256896390004089
 20
13.80369508656261
 30
0.0
 40
0.128
  1
13
 50
90.0
  7
ROMANS
 72
     2
 11
4.192896390004089
 21
14.02921889608642
 31
0.0
100
AcDbText
 73
     2
  0
LINE
  5
812C
330
1F
100
AcDbEntity
  8
CONTINUOUS1
100
AcDbLine
 10
4.272896390004088
 20
13.7811870312879
 30
0.0
 11
4.27289639000409
 21
14.06921889608641
 31
0.0
  0
TEXT
  5
812D
330
1F
100
AcDbEntity
  8
TEXT1
100
AcDbText
 10
3.828383873160007
 20
13.84026651513404
 30
0.0
 40
0.128
  1
31
 50
90.0
  7
ROMANS
 72
     2
 11
3.764383873160007
 21
14.02921889608642
 31
0.0
100
AcDbText
 73
     2
  0
LWPOLYLINE
  5
812E
330
1F
100
AcDbEntity
  8
CONTINUOUS1
100
AcDbPolyline
 90
        3
 70
     0
 43
0.0
 10
3.844383873160009
 20
14.06921889608641
 10
3.844383873160009
 20
13.74921889608641
 10
3.95638387316001
 20
13.74921889608641
  0
TEXT
  5
812F
330
1F
100
AcDbEntity
  8
TEXT1
100
AcDbText
 10
4.256896390004089
 20
13.19209076687539
 30
0.0
 40
0.128
  1
14
 50
90.0
  7
ROMANS
 11
4.192896390004089
 21
13.19209076687539
 31
0.0
100
AcDbText
 73
     2
  0
TEXT
  5
8130
330
1F
100
AcDbEntity
  8
TEXT1
100
AcDbText
 10
3.828383873160009
 20
13.19209076687539
 30
0.0
 40
0.128
  1
32
 50
90.0
  7
ROMANS
 11
3.764383873160009
 21
13.19209076687539
 31
0.0
100
AcDbText
 73
     2
  0
LWPOLYLINE
  5
8131
330
1F
100
AcDbEntity
  8
CONTINUOUS1
100
AcDbPolyline
 90
        4
 70
     0
 43
0.0
 10
4.27289639000409
 20
13.19209076687539
 10
4.27289639000409
 20
13.4720907668754
 10
4.190074295571282
 20
13.7811870312879
 10
4.112800229468157
 20
13.7604815076797
  0
LWPOLYLINE
  5
8132
330
1F
100
AcDbEntity
  8
CONTINUOUS1
100
AcDbPolyline
 90
        3
 70
     0
 43
0.0
 10
3.844383873160009
 20
13.19209076687539
 10
3.844383873160009
 20
13.4720907668754
 10
3.927205967592817
 20
13.7811870312879
  0
LINE
  5
8135
330
1F
100
AcDbEntity
  8
HIDDEN1
100
AcDbLine
 10
3.45299948552695
 20
13.61065483148091
 30
0.0
 11
4.235768260793069
 21
13.61065483148091
 31
0.0
  0
TEXT
  5
8145
330
1F
100
AcDbEntity
  8
TEXT1
100
AcDbText
 10
0.5492571428571431
 20
15.47723816848427
 30
0.0
 40
0.16
  1
Supply voltage of electromagnet
 41
0.9
  7
ROMANS
 11
0.5492571428571431
 21
15.55723816848427
 31
0.0
100
AcDbText
 73
     2
  0
LINE
  5
8146
330
1F
100
AcDbEntity
  8
CONTINUOUS1
100
AcDbLine
 10
0.4864000000000014
 20
15.31723816848427
 30
0.0
 11
14.9864
 21
15.31723816848427
 31
0.0
1001
GENIUS_GENOREF_13
1005
0
1005
0
1005
0
1005
0
1005
0
1005
0
1005
0
1005
0
1005
0
1005
0
1005
0
1005
0
1005
0
1005
0
1005
0
  0
TEXT
  5
8147
330
1F
100
AcDbEntity
  8
TEXT1
100
AcDbText
 10
4.5504
 20
15.47723816848427
 30
0.0
 40
0.16
  1
24 Vdc
 41
0.9
  7
ROMANS
 11
4.5504
 21
15.55723816848427
 31
0.0
100
AcDbText
 73
     2
  0
TEXT
  5
814C
330
1F
100
AcDbEntity
  8
TEXT1
100
AcDbText
 10
6.300400000000001
 20
15.47723816848427
 30
0.0
 40
0.16
  1
120 Vac or Vdc
 41
0.75
  7
ROMANS
 11
6.300400000000001
 21
15.55723816848427
 31
0.0
100
AcDbText
 73
     2
  0
LINE
  5
8153
330
1F
100
AcDbEntity
  8
CONTINUOUS1
100
AcDbLine
 10
6.236400000000003
 20
12.59723816848426
 30
0.0
 11
6.236400000000001
 21
15.79723816848429
 31
0.0
1001
GENIUS_GENOREF_13
1005
0
1005
0
1005
0
1005
0
1005
0
1005
0
1005
0
1005
0
1005
0
1005
0
1005
0
1005
0
1005
0
1005
0
1005
0
  0
LINE
  5
8154
330
1F
100
AcDbEntity
  8
CONTINUOUS1
100
AcDbLine
 10
7.986400000000001
 20
12.59723816848426
 30
0.0
 11
7.986400000000001
 21
15.79723816848429
 31
0.0
1001
GENIUS_GENOREF_13
1005
0
1005
0
1005
0
1005
0
1005
0
1005
0
1005
0
1005
0
1005
0
1005
0
1005
0
1005
0
1005
0
1005
0
1005
0
  0
TEXT
  5
815C
330
1F
100
AcDbEntity
  8
TEXT1
100
AcDbText
 10
8.050399999999999
 20
15.47723816848427
 30
0.0
 40
0.16
  1
230 Vac or Vdc
 41
0.75
  7
ROMANS
 11
8.050399999999999
 21
15.55723816848427
 31
0.0
100
AcDbText
 73
     2
  0
TEXT
  5
82AC
330
1F
100
AcDbEntity
  8
TEXT1
100
AcDbText
 10
0.8003809523809497
 20
3.33054828302232
 30
0.0
 40
0.16
  1
A Ronis key operated lock enables the forced opening of the interlocking device, allowing
  7
ROMANS
 11
0.8003809523809497
 21
3.41054828302232
 31
0.0
100
AcDbText
 73
     2
  0
TEXT
  5
82B9
330
1F
100
AcDbEntity
  8
TEXT1
100
AcDbText
 10
0.8156190476190445
 20
3.063881616355653
 30
0.0
 40
0.16
  1
opening of the N.C. safety and subsequent actuating key withdrawal.
  7
ROMANS
 11
0.8156190476190445
 21
3.143881616355653
 31
0.0
100
AcDbText
 73
     2
  0
TEXT
  5
82BD
330
1F
100
AcDbEntity
  8
TEXT1
100
AcDbText
 10
0.8156190476190445
 20
3.597214949688986
 30
0.0
 40
0.16
  1
simultaneously.
  7
ROMANS
 11
0.8156190476190445
 21
3.677214949688986
 31
0.0
100
AcDbText
 73
     2
  0
TEXT
  5
82BE
330
1F
100
AcDbEntity
  8
TEXT1
100
AcDbText
 10
0.8003809523809497
 20
3.863881616355653
 30
0.0
 40
0.16
  1
The N.O. contacts will close after the N.C. contacts open. They do not change state
  7
ROMANS
 11
0.8003809523809497
 21
3.943881616355653
 31
0.0
100
AcDbText
 73
     2
  0
TEXT
  5
82BF
330
1F
100
AcDbEntity
  8
TEXT1
100
AcDbText
 10
0.785142857142855
 20
4.130548283022321
 30
0.0
 40
0.16
  1
is fully inserted and engaged in the head of the switch.
  7
ROMANS
 11
0.785142857142855
 21
4.210548283022321
 31
0.0
100
AcDbText
 73
     2
  0
TEXT
  5
82C0
330
1F
100
AcDbEntity
  8
TEXT1
100
AcDbText
 10
0.785142857142855
 20
4.397214949688988
 30
0.0
 40
0.16
  1
Schematic diagrams shown represent the contact states while in the actuating key 
  7
ROMANS
 11
0.785142857142855
 21
4.477214949688988
 31
0.0
100
AcDbText
 73
     2
  0
TEXT
  5
82C1
330
1F
100
AcDbEntity
  8
TEXT1
100
AcDbText
 10
0.785142857142855
 20
4.663881616355654
 30
0.0
 40
0.16
  1
For use on 110/120 Vdc or 220/240 Vdc, remove the LED indicator module.
  7
ROMANS
 11
0.785142857142855
 21
4.743881616355654
 31
0.0
100
AcDbText
 73
     2
  0
HATCH
  5
82CD
330
1F
100
AcDbEntity
  8
CONTINUOUS1
100
AcDbHatch
 10
0.0
 20
0.0
 30
0.0
210
0.0
220
0.0
230
1.0
  2
SOLID
 70
     1
 71
     1
 91
        1
 92
        1
 93
       10
 72
     1
 10
0.6014657769419119
 20
3.974783315793148
 11
0.6648976437749953
 21
3.933590179821051
 72
     1
 10
0.6648976437749953
 20
3.933590179821051
 11
0.6377929033421799
 21
3.862979916918158
 72
     1
 10
0.6377929033421799
 20
3.862979916918158
 11
0.696571428571427
 21
3.910577828143555
 72
     1
 10
0.696571428571427
 20
3.910577828143555
 11
0.7553499538006743
 21
3.862979916918158
 72
     1
 10
0.7553499538006743
 20
3.862979916918158
 11
0.7282452133678589
 21
3.933590179821051
 72
     1
 10
0.7282452133678589
 20
3.933590179821051
 11
0.7916770802009423
 21
3.974783315793148
 72
     1
 10
0.7916770802009423
 20
3.974783315793148
 11
0.7161469041279713
 21
3.970824946996309
 72
     1
 10
0.7161469041279713
 20
3.970824946996309
 11
0.6965714285714269
 21
4.043881616355653
 72
     1
 10
0.6965714285714269
 20
4.043881616355653
 11
0.6769959530148829
 21
3.970824946996309
 72
     1
 10
0.6769959530148829
 20
3.970824946996309
 11
0.6014657769419119
 21
3.974783315793148
 97
        1
330
82CE
 75
     0
 76
     1
 98
        1
 10
-0.1038095238095247
 20
-8.921451716977651
  0
LWPOLYLINE
  5
82CE
102
{ACAD_REACTORS
330
82CD
102
}
330
1F
100
AcDbEntity
  8
CONTINUOUS1
100
AcDbPolyline
 90
       10
 70
     1
 43
0.0
 10
0.6014657769419119
 20
3.974783315793148
 10
0.6648976437749953
 20
3.933590179821051
 10
0.6377929033421799
 20
3.862979916918158
 10
0.696571428571427
 20
3.910577828143555
 10
0.7553499538006743
 20
3.862979916918158
 10
0.7282452133678589
 20
3.933590179821051
 10
0.7916770802009423
 20
3.974783315793148
 10
0.7161469041279713
 20
3.970824946996309
 10
0.6965714285714269
 20
4.043881616355653
 10
0.6769959530148829
 20
3.970824946996309
  0
LINE
  5
82D0
330
1F
100
AcDbEntity
  8
CONTINUOUS1
100
AcDbLine
 10
0.6465714285714271
 20
4.502214949688987
 30
0.0
 11
0.7465714285714267
 21
4.502214949688987
 31
0.0
  0
LINE
  5
82D1
330
1F
100
AcDbEntity
  8
CONTINUOUS1
100
AcDbLine
 10
0.6965714285714278
 20
4.422214949688989
 30
0.0
 11
0.6965714285714278
 21
4.532214949688988
 31
0.0
  0
LINE
  5
82D2
330
1F
100
AcDbEntity
  8
CONTINUOUS1
100
AcDbLine
 10
0.6465714285714271
 20
4.45221494968899
 30
0.0
 11
0.7465714285714267
 21
4.45221494968899
 31
0.0
  0
LINE
  5
858B
330
1F
100
AcDbEntity
  8
CENTER1
100
AcDbLine
 10
30.72809446691794
 20
10.69131596861718
 30
0.0
 11
29.14809446691794
 21
10.69131596861718
 31
0.0
  0
LINE
  5
8591
330
1F
100
AcDbEntity
  8
CONTINUOUS1
100
AcDbLine
 10
30.62809446691793
 20
10.99131596861719
 30
0.0
 11
30.62809446691793
 21
12.45381596861718
 31
0.0
  0
LINE
  5
8597
330
1F
100
AcDbEntity
  8
CONTINUOUS1
100
AcDbLine
 10
30.62809446691793
 20
11.95381596861718
 30
0.0
 11
30.13809446691793
 21
11.95381596861718
 31
0.0
  0
LINE
  5
8598
330
1F
100
AcDbEntity
  8
CONTINUOUS1
100
AcDbLine
 10
30.72809446691794
 20
12.95381596861718
 30
0.0
 11
29.34809446691795
 21
12.95381596861718
 31
0.0
  0
LINE
  5
85A6
330
1F
100
AcDbEntity
  8
CONTINUOUS1
100
AcDbLine
 10
29.83809446691794
 20
11.95381596861718
 30
0.0
 11
29.34809446691795
 21
11.95381596861718
 31
0.0
  0
LWPOLYLINE
  5
85A8
330
1F
100
AcDbEntity
  8
CONTINUOUS1
100
AcDbPolyline
 90
        8
 70
     1
 43
0.0
 10
29.64809446691795
 20
12.35381596861718
 10
30.32809446691794
 20
12.35381596861718
 10
30.32809446691794
 20
12.01381596861718
 10
30.13809446691794
 20
12.01381596861718
 10
30.13809446691794
 20
11.65381596861718
 10
29.83809446691794
 20
11.65381596861718
 10
29.83809446691794
 20
12.01381596861718
 10
29.64809446691795
 20
12.01381596861718
  0
LWPOLYLINE
  5
85A9
330
1F
100
AcDbEntity
  8
CONTINUOUS1
100
AcDbPolyline
 90
        8
 70
     1
 43
0.0
 10
29.69809446691795
 20
12.30381596861718
 10
30.27809446691794
 20
12.30381596861718
 10
30.27809446691794
 20
12.06381596861718
 10
30.08809446691794
 20
12.06381596861718
 10
30.08809446691794
 20
11.70381596861718
 10
29.88809446691794
 20
11.70381596861718
 10
29.88809446691794
 20
12.06381596861718
 10
29.69809446691795
 20
12.06381596861718
  0
LINE
  5
85AA
330
1F
100
AcDbEntity
  8
CONTINUOUS1
100
AcDbLine
 10
29.88809446691794
 20
11.70381596861718
 30
0.0
 11
29.83809446691794
 21
11.65381596861718
 31
0.0
  0
LINE
  5
85AB
330
1F
100
AcDbEntity
  8
CONTINUOUS1
100
AcDbLine
 10
30.08809446691794
 20
11.70381596861718
 30
0.0
 11
30.13809446691794
 21
11.65381596861718
 31
0.0
  0
LINE
  5
85AC
330
1F
100
AcDbEntity
  8
CONTINUOUS1
100
AcDbLine
 10
30.08809446691794
 20
12.06381596861718
 30
0.0
 11
30.13809446691794
 21
12.01381596861718
 31
0.0
  0
LINE
  5
85AD
330
1F
100
AcDbEntity
  8
CONTINUOUS1
100
AcDbLine
 10
30.27809446691794
 20
12.06381596861718
 30
0.0
 11
30.32809446691794
 21
12.01381596861718
 31
0.0
  0
LINE
  5
85AE
330
1F
100
AcDbEntity
  8
CONTINUOUS1
100
AcDbLine
 10
30.27809446691794
 20
12.30381596861718
 30
0.0
 11
30.32809446691794
 21
12.35381596861718
 31
0.0
  0
LINE
  5
85AF
330
1F
100
AcDbEntity
  8
CONTINUOUS1
100
AcDbLine
 10
29.69809446691795
 20
12.30381596861718
 30
0.0
 11
29.64809446691795
 21
12.35381596861718
 31
0.0
  0
LINE
  5
85B0
330
1F
100
AcDbEntity
  8
CONTINUOUS1
100
AcDbLine
 10
29.69809446691795
 20
12.06381596861718
 30
0.0
 11
29.64809446691795
 21
12.01381596861718
 31
0.0
  0
LINE
  5
85B1
330
1F
100
AcDbEntity
  8
CONTINUOUS1
100
AcDbLine
 10
29.88809446691794
 20
12.06381596861718
 30
0.0
 11
29.83809446691794
 21
12.01381596861718
 31
0.0
  0
LINE
  5
85B4
330
1F
100
AcDbEntity
  8
CENTER1
100
AcDbLine
 10
29.14809446691794
 20
8.33131596861719
 30
0.0
 11
30.72809446691794
 21
8.33131596861719
 31
0.0
  0
LINE
  5
85B8
330
1F
100
AcDbEntity
  8
CONTINUOUS1
100
AcDbLine
 10
29.34809446691795
 20
14.83131596861719
 30
0.0
 11
30.72809446691794
 21
14.83131596861719
 31
0.0
  0
CIRCLE
  5
85B9
330
1F
100
AcDbEntity
  8
CONTINUOUS1
100
AcDbCircle
 10
30.03809446691795
 20
15.20631596861719
 30
0.0
 40
0.325
  0
LINE
  5
85BD
330
1F
100
AcDbEntity
  8
CONTINUOUS1
100
AcDbLine
 10
30.06309446691794
 20
15.20631596861719
 30
0.0
 11
30.06309446691794
 21
14.88227893369679
 31
0.0
  0
LINE
  5
85BE
330
1F
100
AcDbEntity
  8
CONTINUOUS1
100
AcDbLine
 10
30.01309446691795
 20
15.20631596861719
 30
0.0
 11
30.01309446691795
 21
14.88227893369679
 31
0.0
  0
LINE
  5
85BF
330
1F
100
AcDbEntity
  8
CONTINUOUS1
100
AcDbLine
 10
30.01309446691795
 20
15.20631596861719
 30
0.0
 11
30.06309446691794
 21
15.20631596861719
 31
0.0
  0
HATCH
  5
85C4
330
1F
100
AcDbEntity
  8
CONTINUOUS1
100
AcDbHatch
 10
0.0
 20
0.0
 30
0.0
210
0.0
220
0.0
230
1.0
  2
ANSI31
 70
     0
 71
     0
 91
        1
 92
        7
 72
     1
 73
     1
 93
        4
 10
30.06309446691794
 20
15.20631596861719
 42
0.0
 10
30.01309446691795
 20
15.20631596861719
 42
0.0
 10
30.01309446691795
 20
14.88227893369679
 42
0.0385186031842774
 10
30.06309446691794
 20
14.88227893369679
 42
0.0
 97
        0
 75
     0
 76
     1
 52
0.0
 41
0.5
 77
     0
 78
     1
 53
45.0
 43
9.789246565480453
 44
8.30443838182893
 45
-0.0441941738241592
 46
0.0441941738241592
 79
     0
 47
0.0026241073276044
 98
        1
 10
30.05248954581248
 20
15.08000545067192
  0
LINE
  5
85C5
330
1F
100
AcDbEntity
  8
CONTINUOUS1
100
AcDbLine
 10
30.37809446691793
 20
11.19131596861719
 30
0.0
 11
30.62809446691793
 21
11.19131596861719
 31
0.0
  0
LINE
  5
85C6
330
1F
100
AcDbEntity
  8
CONTINUOUS1
100
AcDbLine
 10
30.37809446691793
 20
10.99131596861719
 30
0.0
 11
30.37809446691793
 21
11.19131596861719
 31
0.0
  0
LINE
  5
85C7
330
1F
100
AcDbEntity
  8
CONTINUOUS1
100
AcDbLine
 10
29.59809446691794
 20
11.19131596861719
 30
0.0
 11
29.34809446691795
 21
11.19131596861719
 31
0.0
  0
LINE
  5
85C8
330
1F
100
AcDbEntity
  8
CONTINUOUS1
100
AcDbLine
 10
29.59809446691794
 20
10.99131596861719
 30
0.0
 11
29.59809446691794
 21
11.19131596861719
 31
0.0
  0
LINE
  5
85CA
330
1F
100
AcDbEntity
  8
CENTER1
100
AcDbLine
 10
30.52809446691794
 20
7.941315968617189
 30
0.0
 11
30.52809446691794
 21
10.99131596861719
 31
0.0
  0
LINE
  5
85CB
330
1F
100
AcDbEntity
  8
CENTER1
100
AcDbLine
 10
29.34809446691794
 20
7.941315968617189
 30
0.0
 11
29.34809446691794
 21
10.99131596861719
 31
0.0
  0
CIRCLE
  5
85CC
330
1F
100
AcDbEntity
  8
CONTINUOUS1
100
AcDbCircle
 10
30.52809446691794
 20
10.69131596861718
 30
0.0
 40
0.105
  0
CIRCLE
  5
85CD
330
1F
100
AcDbEntity
  8
CONTINUOUS1
100
AcDbCircle
 10
29.34809446691794
 20
8.33131596861719
 30
0.0
 40
0.105
  0
LWPOLYLINE
  5
85D4
330
1F
100
AcDbEntity
  8
CONTINUOUS1
100
AcDbPolyline
 90
        4
 70
     1
 43
0.0
 10
29.45309446691794
 20
10.65131596861718
 10
29.45309446691794
 20
10.73131596861718
 42
0.9999999999999998
 10
29.24309446691793
 20
10.73131596861718
 10
29.24309446691793
 20
10.65131596861718
 42
0.9999999999999998
  0
LWPOLYLINE
  5
85D5
330
1F
100
AcDbEntity
  8
CONTINUOUS1
100
AcDbPolyline
 90
        4
 70
     1
 43
0.0
 10
30.63309446691794
 20
8.29131596861719
 10
30.63309446691794
 20
8.371315968617189
 42
0.9999999999999998
 10
30.42309446691794
 20
8.371315968617189
 10
30.42309446691794
 20
8.29131596861719
 42
0.9999999999999998
  0
LWPOLYLINE
  5
85E6
330
1F
100
AcDbEntity
  8
CONTINUOUS1
100
AcDbPolyline
 90
        4
 70
     0
 43
0.0
 10
29.14809446691794
 20
10.42881596861719
 10
29.37559446691794
 20
10.42881596861719
 42
0.4142135623730922
 10
29.56309446691793
 20
10.61631596861719
 10
29.56309446691793
 20
10.99131596861719
  0
LWPOLYLINE
  5
85E7
330
1F
100
AcDbEntity
  8
CONTINUOUS1
100
AcDbPolyline
 90
        4
 70
     0
 43
0.0
 10
30.31309446691794
 20
10.99131596861719
 10
30.31309446691794
 20
10.61631596861719
 42
0.4142135623730951
 10
30.50059446691793
 20
10.42881596861719
 10
30.72809446691794
 20
10.42881596861719
  0
LWPOLYLINE
  5
85E8
330
1F
100
AcDbEntity
  8
CONTINUOUS1
100
AcDbPolyline
 90
        4
 70
     0
 43
0.0
 10
30.31309446691794
 20
7.941315968617189
 10
30.31309446691794
 20
8.316315968617189
 42
-0.4142135623730951
 10
30.50059446691793
 20
8.503815968617189
 10
30.72809446691794
 20
8.503815968617189
  0
LWPOLYLINE
  5
85E9
330
1F
100
AcDbEntity
  8
CONTINUOUS1
100
AcDbPolyline
 90
        4
 70
     0
 43
0.0
 10
29.14809446691794
 20
8.503815968617189
 10
29.37559446691794
 20
8.503815968617189
 42
-0.4142135623730922
 10
29.56309446691793
 20
8.316315968617191
 10
29.56309446691793
 20
7.941315968617189
  0
LINE
  5
85EA
330
1F
100
AcDbEntity
  8
0
100
AcDbLine
 10
29.83821954514074
 20
10.80881596861718
 30
0.0
 11
30.03796938869512
 21
10.80881596861718
 31
0.0
  0
LINE
  5
85EB
330
1F
100
AcDbEntity
  8
0
100
AcDbLine
 10
29.83821954514074
 20
10.79881596861719
 30
0.0
 11
30.03796938869512
 21
10.79881596861718
 31
0.0
  0
CIRCLE
  5
85EC
330
1F
100
AcDbEntity
  8
CONTINUOUS1
100
AcDbCircle
 10
29.93809446691793
 20
10.80381596861718
 30
0.0
 40
0.1
  0
DIMENSION
  5
85ED
330
1F
100
AcDbEntity
  8
DIM
100
AcDbDimension
  2
*D5
 10
30.72809446691794
 20
16.02186888320346
 30
0.0
 11
30.03809446691795
 21
16.02186888320346
 31
0.0
 70
    32
  3
SCHNEIDERELECTRIC
100
AcDbAlignedDimension
 13
29.34809446691795
 23
15.58131596861719
 33
0.0
 14
30.72809446691794
 24
15.58131596861719
 34
0.0
100
AcDbRotatedDimension
1001
ACAD
1000
DSTYLE
1002
{
1070
    40
1040
2.0
1002
}
  0
LWPOLYLINE
  5
864C
330
1F
100
AcDbEntity
  8
CONTINUOUS1
100
AcDbPolyline
 90
        5
 70
     0
 43
0.0
 10
29.34809446691795
 20
12.45381596861718
 10
30.72809446691794
 20
12.45381596861718
 10
30.72809446691794
 20
15.58131596861719
 10
29.34809446691795
 20
15.58131596861719
 10
29.34809446691795
 20
10.99131596861719
  0
LWPOLYLINE
  5
864D
330
1F
100
AcDbEntity
  8
CONTINUOUS1
100
AcDbPolyline
 90
        4
 70
     1
 43
0.0
 10
30.72809446691794
 20
7.941315968617189
 10
30.72809446691794
 20
10.99131596861719
 10
29.14809446691794
 20
10.99131596861719
 10
29.14809446691794
 20
7.941315968617189
  0
DIMENSION
  5
86B8
330
1F
100
AcDbEntity
  8
DIM
100
AcDbDimension
  2
*D6
 10
27.83882920566553
 20
15.58131596861719
 30
0.0
 11
27.83882920566552
 21
13.13631596861719
 31
0.0
 70
    32
  3
SCHNEIDERELECTRIC
100
AcDbAlignedDimension
 13
29.14809446691794
 23
10.69131596861718
 33
0.0
 14
29.34809446691795
 24
15.58131596861719
 34
0.0
 50
270.0
100
AcDbRotatedDimension
1001
ACAD
1000
DSTYLE
1002
{
1070
    40
1040
2.0
1002
}
  0
DIMENSION
  5
86DC
330
1F
100
AcDbEntity
  8
DIM
100
AcDbDimension
  2
*D7
 10
27.83882920566553
 20
10.69131596861719
 30
0.0
 11
27.83882920566552
 21
9.511315968617195
 31
0.0
 70
    32
  3
SCHNEIDERELECTRIC
100
AcDbAlignedDimension
 13
29.14809446691794
 23
8.33131596861719
 33
0.0
 14
29.14809446691794
 24
10.69131596861718
 34
0.0
 50
270.0
100
AcDbRotatedDimension
1001
ACAD
1000
DSTYLE
1002
{
1070
    40
1040
2.0
1002
}
  0
DIMENSION
  5
8762
330
1F
100
AcDbEntity
  8
DIM
100
AcDbDimension
  2
*D8
 10
30.72809446691794
 20
6.986851410143925
 30
0.0
 11
29.93809446691793
 21
6.986851410143925
 31
0.0
 70
    32
  3
SCHNEIDERELECTRIC
100
AcDbAlignedDimension
 13
29.14809446691794
 23
7.941315968617189
 33
0.0
 14
30.72809446691794
 24
7.941315968617189
 34
0.0
100
AcDbRotatedDimension
1001
ACAD
1000
DSTYLE
1002
{
1070
    40
1040
2.0
1002
}
  0
DIMENSION
  5
8770
330
1F
100
AcDbEntity
  8
DIM
100
AcDbDimension
  2
*D9
 10
30.52809446691794
 20
7.411715449437096
 30
0.0
 11
29.93809446691793
 21
7.411715449437096
 31
0.0
 70
    32
  3
SCHNEIDERELECTRIC
100
AcDbAlignedDimension
 13
29.34809446691794
 23
7.941315968617189
 33
0.0
 14
30.52809446691794
 24
7.941315968617189
 34
0.0
100
AcDbRotatedDimension
1001
ACAD
1000
DSTYLE
1002
{
1070
    40
1040
2.0
1002
}
  0
DIMENSION
  5
87BE
330
1F
100
AcDbEntity
  8
DIM
100
AcDbDimension
  2
*D10
 10
27.20013518392006
 20
15.58131596861719
 30
0.0
 11
27.20013518392006
 21
11.76131596861719
 31
0.0
 70
    32
  3
SCHNEIDERELECTRIC
100
AcDbAlignedDimension
 13
29.14809446691794
 23
7.941315968617189
 33
0.0
 14
29.34809446691795
 24
15.58131596861719
 34
0.0
 50
270.0
100
AcDbRotatedDimension
1001
ACAD
1000
DSTYLE
1002
{
1070
    40
1040
2.0
1002
}
  0
DIMENSION
  5
883A
330
1F
100
AcDbEntity
  8
DIM
100
AcDbDimension
  2
*D11
 10
30.45672726848195
 20
10.61429828891051
 30
0.0
 11
31.45075558657466
 21
11.15669125315103
 31
0.0
 70
   163
  3
SCHNEIDERELECTRIC
100
AcDbDiametricDimension
 15
30.59946166535392
 25
10.76833364832386
 35
0.0
 40
0.0
1001
ACAD
1000
DSTYLE
1002
{
1070
   141
1040
0.0
1070
    40
1040
2.0
1002
}
  0
DIMENSION
  5
884E
330
1F
100
AcDbEntity
  8
DIM
100
AcDbDimension
  2
*D12
 10
30.44614782753592
 20
8.305667295409008
 30
0.0
 11
31.79361272943181
 21
8.71678278518042
 31
0.0
 70
   163
  1
\P<>x.29\PSLOT
  3
SCHNEIDERELECTRIC
100
AcDbDiametricDimension
 15
30.61004110629995
 25
8.436964641825364
 35
0.0
 40
0.0
1001
ACAD
1000
DSTYLE
1002
{
1070
   141
1040
0.0
1070
    40
1040
2.0
1002
}
  0
LINE
  5
88AA
330
1F
100
AcDbEntity
  8
CONTINUOUS1
100
AcDbLine
 10
26.29659807528316
 20
15.58131596861719
 30
0.0
 11
24.91659807528316
 21
15.58131596861719
 31
0.0
  0
LINE
  5
88AB
330
1F
100
AcDbEntity
  8
CONTINUOUS1
100
AcDbLine
 10
26.29659807528316
 20
7.941315968617193
 30
0.0
 11
24.64659807528316
 21
7.941315968617191
 31
0.0
  0
LINE
  5
88AC
330
1F
100
AcDbEntity
  8
CONTINUOUS1
100
AcDbLine
 10
26.29659807528316
 20
7.941315968617189
 30
0.0
 11
26.29659807528316
 21
15.58131596861719
 31
0.0
  0
LINE
  5
88AD
330
1F
100
AcDbEntity
  8
CONTINUOUS1
100
AcDbLine
 10
24.97659807528316
 20
7.941315968617189
 30
0.0
 11
24.97659807528316
 21
8.603815968617189
 31
0.0
  0
LINE
  5
88AE
330
1F
100
AcDbEntity
  8
CONTINUOUS1
100
AcDbLine
 10
24.91659807528316
 20
10.99131596861719
 30
0.0
 11
24.91659807528316
 21
11.45381596861718
 31
0.0
  0
LINE
  5
88AF
330
1F
100
AcDbEntity
  8
CONTINUOUS1
100
AcDbLine
 10
24.64659807528316
 20
7.941315968617191
 30
0.0
 11
24.64659807528316
 21
10.99131596861719
 31
0.0
  0
LINE
  5
88B0
330
1F
100
AcDbEntity
  8
CONTINUOUS1
100
AcDbLine
 10
24.64659807528316
 20
11.45381596861718
 30
0.0
 11
24.64659807528316
 21
12.45381596861718
 31
0.0
  0
ARC
  5
88B1
330
1F
100
AcDbEntity
  8
CONTINUOUS1
100
AcDbCircle
 10
25.04159807528316
 20
15.40285345021659
 30
0.0
 40
0.1307836584658657
100
AcDbArc
 50
17.10313929190604
 51
81.20356749448211
  0
LINE
  5
88B2
330
1F
100
AcDbEntity
  8
CONTINUOUS1
100
AcDbLine
 10
25.16659807528316
 20
15.44131596861719
 30
0.0
 11
24.91659807528316
 21
15.44131596861719
 31
0.0
  0
LINE
  5
88B3
330
1F
100
AcDbEntity
  8
CONTINUOUS1
100
AcDbLine
 10
25.16659807528316
 20
15.38131596861718
 30
0.0
 11
24.91659807528316
 21
15.38131596861718
 31
0.0
  0
LINE
  5
88B4
330
1F
100
AcDbEntity
  8
CONTINUOUS1
100
AcDbLine
 10
25.02159807528316
 20
15.47363710868246
 30
0.0
 11
25.06159807528316
 21
15.47363710868246
 31
0.0
  0
LINE
  5
88B5
330
1F
100
AcDbEntity
  8
CONTINUOUS1
100
AcDbLine
 10
25.06159807528316
 20
15.53363710868245
 30
0.0
 11
25.06159807528316
 21
15.47363710868246
 31
0.0
  0
LINE
  5
88B6
330
1F
100
AcDbEntity
  8
CONTINUOUS1
100
AcDbLine
 10
25.02159807528316
 20
15.53363710868245
 30
0.0
 11
25.02159807528316
 21
15.47363710868246
 31
0.0
  0
ARC
  5
88B7
330
1F
100
AcDbEntity
  8
CONTINUOUS1
100
AcDbCircle
 10
25.04159807528316
 20
15.40285345021659
 30
0.0
 40
0.1307836584658657
100
AcDbArc
 50
98.7964325055179
 51
162.8968607080939
  0
LINE
  5
88B8
330
1F
100
AcDbEntity
  8
CONTINUOUS1
100
AcDbLine
 10
25.16659807528316
 20
15.58131596861719
 30
0.0
 11
25.16659807528316
 21
15.38131596861718
 31
0.0
  0
LINE
  5
88B9
330
1F
100
AcDbEntity
  8
CONTINUOUS1
100
AcDbLine
 10
26.19159807528316
 20
15.47363710868246
 30
0.0
 11
26.15159807528316
 21
15.47363710868246
 31
0.0
  0
LINE
  5
88BA
330
1F
100
AcDbEntity
  8
CONTINUOUS1
100
AcDbLine
 10
26.15159807528316
 20
15.53363710868245
 30
0.0
 11
26.15159807528316
 21
15.47363710868246
 31
0.0
  0
ARC
  5
88BB
330
1F
100
AcDbEntity
  8
CONTINUOUS1
100
AcDbCircle
 10
26.17159807528316
 20
15.40285345021659
 30
0.0
 40
0.1307836584658657
100
AcDbArc
 50
98.7964325055179
 51
162.8968607080939
  0
LINE
  5
88BC
330
1F
100
AcDbEntity
  8
CONTINUOUS1
100
AcDbLine
 10
26.19159807528316
 20
15.53363710868245
 30
0.0
 11
26.19159807528316
 21
15.47363710868246
 31
0.0
  0
LINE
  5
88BD
330
1F
100
AcDbEntity
  8
CONTINUOUS1
100
AcDbLine
 10
26.04659807528316
 20
15.44131596861719
 30
0.0
 11
26.29659807528316
 21
15.44131596861719
 31
0.0
  0
ARC
  5
88BE
330
1F
100
AcDbEntity
  8
CONTINUOUS1
100
AcDbCircle
 10
26.17159807528316
 20
15.40285345021659
 30
0.0
 40
0.1307836584658657
100
AcDbArc
 50
17.10313929190605
 51
81.20356749448211
  0
LINE
  5
88BF
330
1F
100
AcDbEntity
  8
CONTINUOUS1
100
AcDbLine
 10
26.04659807528316
 20
15.38131596861718
 30
0.0
 11
26.29659807528316
 21
15.38131596861718
 31
0.0
  0
LINE
  5
88C0
330
1F
100
AcDbEntity
  8
CONTINUOUS1
100
AcDbLine
 10
26.04659807528316
 20
15.58131596861719
 30
0.0
 11
26.04659807528316
 21
15.38131596861718
 31
0.0
  0
LINE
  5
88C2
330
1F
100
AcDbEntity
  8
CONTINUOUS1
100
AcDbLine
 10
26.29659807528315
 20
12.45381596861718
 30
0.0
 11
24.64659807528316
 21
12.45381596861718
 31
0.0
  0
LINE
  5
88C3
330
1F
100
AcDbEntity
  8
CONTINUOUS1
100
AcDbLine
 10
26.29659807528315
 20
12.95381596861718
 30
0.0
 11
26.10659807528316
 21
12.95381596861718
 31
0.0
  0
LINE
  5
88C4
330
1F
100
AcDbEntity
  8
CONTINUOUS1
100
AcDbLine
 10
26.29659807528315
 20
11.95381596861718
 30
0.0
 11
24.64659807528316
 21
11.95381596861718
 31
0.0
  0
LINE
  5
88C5
330
1F
100
AcDbEntity
  8
CONTINUOUS1
100
AcDbLine
 10
26.29659807528316
 20
10.99131596861719
 30
0.0
 11
24.64659807528316
 21
10.99131596861719
 31
0.0
  0
LINE
  5
88CA
330
1F
100
AcDbEntity
  8
CONTINUOUS1
100
AcDbLine
 10
29.24809446691794
 20
10.32881596861719
 30
0.0
 11
30.62809446691793
 21
10.32881596861718
 31
0.0
  0
LINE
  5
88CE
330
1F
100
AcDbEntity
  8
CONTINUOUS1
100
AcDbLine
 10
30.62809446691793
 20
8.60381596861719
 30
0.0
 11
30.62809446691793
 21
10.32881596861718
 31
0.0
  0
LINE
  5
88D0
330
1F
100
AcDbEntity
  8
CONTINUOUS1
100
AcDbLine
 10
29.24809446691794
 20
10.32881596861719
 30
0.0
 11
29.24809446691794
 21
8.60381596861719
 31
0.0
  0
LINE
  5
88D2
330
1F
100
AcDbEntity
  8
CONTINUOUS1
100
AcDbLine
 10
29.24809446691794
 20
8.60381596861719
 30
0.0
 11
30.62809446691793
 21
8.60381596861719
 31
0.0
  0
CIRCLE
  5
88D5
330
1F
100
AcDbEntity
  8
CONTINUOUS1
100
AcDbCircle
 10
29.65628798420065
 20
9.920622451334471
 30
0.0
 40
0.09375
  0
LINE
  5
88D6
330
1F
100
AcDbEntity
  8
CONTINUOUS1
100
AcDbLine
 10
24.97659807528316
 20
8.603815968617189
 30
0.0
 11
24.64659807528316
 21
8.603815968617187
 31
0.0
  0
LINE
  5
88D7
330
1F
100
AcDbEntity
  8
CONTINUOUS1
100
AcDbLine
 10
24.97659807528316
 20
10.32881596861719
 30
0.0
 11
24.64659807528316
 21
10.32881596861719
 31
0.0
  0
LINE
  5
88D8
330
1F
100
AcDbEntity
  8
CONTINUOUS1
100
AcDbLine
 10
25.16659807528316
 20
11.19131596861719
 30
0.0
 11
24.91659807528316
 21
11.19131596861719
 31
0.0
  0
LINE
  5
88D9
330
1F
100
AcDbEntity
  8
CONTINUOUS1
100
AcDbLine
 10
25.16659807528316
 20
10.99131596861719
 30
0.0
 11
25.16659807528316
 21
11.19131596861719
 31
0.0
  0
LINE
  5
88DA
330
1F
100
AcDbEntity
  8
CONTINUOUS1
100
AcDbLine
 10
26.04659807528316
 20
11.19131596861719
 30
0.0
 11
26.29659807528316
 21
11.19131596861719
 31
0.0
  0
LINE
  5
88DB
330
1F
100
AcDbEntity
  8
CONTINUOUS1
100
AcDbLine
 10
26.04659807528316
 20
10.99131596861719
 30
0.0
 11
26.04659807528316
 21
11.19131596861719
 31
0.0
  0
LINE
  5
88DC
330
1F
100
AcDbEntity
  8
CONTINUOUS1
100
AcDbLine
 10
26.29659807528315
 20
11.45381596861718
 30
0.0
 11
24.64659807528316
 21
11.45381596861718
 31
0.0
  0
LINE
  5
88DE
330
1F
100
AcDbEntity
  8
CONTINUOUS1
100
AcDbLine
 10
24.97659807528316
 20
10.32881596861719
 30
0.0
 11
24.97659807528316
 21
10.99131596861719
 31
0.0
  0
LINE
  5
88DF
330
1F
100
AcDbEntity
  8
CONTINUOUS1
100
AcDbLine
 10
24.91659807528316
 20
12.45381596861718
 30
0.0
 11
24.91659807528316
 21
15.58131596861719
 31
0.0
  0
LINE
  5
8941
330
1F
100
AcDbEntity
  8
HIDDEN1
100
AcDbLine
 10
26.29659807528316
 20
12.32381596861718
 30
0.0
 11
26.10659807528316
 21
12.32381596861718
 31
0.0
  0
LINE
  5
8942
330
1F
100
AcDbEntity
  8
HIDDEN1
100
AcDbLine
 10
26.29659807528315
 20
12.08381596861719
 30
0.0
 11
24.77659807528316
 21
12.08381596861719
 31
0.0
  0
LINE
  5
8943
330
1F
100
AcDbEntity
  8
HIDDEN1
100
AcDbLine
 10
24.64659807528316
 20
11.95381596861718
 30
0.0
 11
24.77659807528316
 21
12.08381596861719
 31
0.0
  0
LINE
  5
8946
330
1F
100
AcDbEntity
  8
HIDDEN1
100
AcDbLine
 10
24.64659807528316
 20
12.45381596861718
 30
0.0
 11
24.77659807528315
 21
12.32381596861718
 31
0.0
  0
LINE
  5
8949
330
1F
100
AcDbEntity
  8
CENTER1
100
AcDbLine
 10
26.29659807528315
 20
12.18381596861719
 30
0.0
 11
25.93159807528317
 21
12.18381596861719
 31
0.0
  0
LINE
  5
894B
330
1F
100
AcDbEntity
  8
CONTINUOUS1
100
AcDbLine
 10
24.77159807528316
 20
7.941315968617191
 30
0.0
 11
24.77159807528316
 21
10.99131596861719
 31
0.0
  0
LINE
  5
894C
330
1F
100
AcDbEntity
  8
CONTINUOUS1
100
AcDbLine
 10
24.85159807528316
 20
7.941315968617189
 30
0.0
 11
24.85159807528317
 21
10.99131596861719
 31
0.0
  0
LWPOLYLINE
  5
896F
330
1F
100
AcDbEntity
  8
CONTINUOUS1
100
AcDbPolyline
 90
        8
 70
     1
 43
0.0
 10
24.56659807528316
 20
10.78781596861719
 10
24.61459807528315
 20
10.78781596861719
 10
24.61459807528315
 20
10.81981596861719
 10
24.56659807528316
 20
10.81981596861719
 10
24.56659807528316
 20
10.90381596861719
 10
24.64659807528316
 20
10.90381596861719
 10
24.64659807528316
 20
10.70381596861719
 10
24.56659807528316
 20
10.70381596861719
  0
LWPOLYLINE
  5
8970
330
1F
100
AcDbEntity
  8
CONTINUOUS1
100
AcDbPolyline
 90
        8
 70
     1
 43
0.0
 10
24.56659807528316
 20
8.144815968617193
 10
24.61459807528315
 20
8.144815968617193
 10
24.61459807528315
 20
8.112815968617189
 10
24.56659807528316
 20
8.112815968617189
 10
24.56659807528316
 20
8.028815968617191
 10
24.64659807528316
 20
8.028815968617191
 10
24.64659807528316
 20
8.22881596861719
 10
24.56659807528316
 20
8.22881596861719
  0
DIMENSION
  5
8971
330
1F
100
AcDbEntity
  8
DIM
100
AcDbDimension
  2
*D13
 10
26.29659807528316
 20
16.39917082007714
 30
0.0
 11
25.47159807528316
 21
16.39917082007714
 31
0.0
 70
    32
  3
SCHNEIDERELECTRIC
100
AcDbAlignedDimension
 13
24.64659807528316
 23
12.45381596861718
 33
0.0
 14
26.29659807528316
 24
15.58131596861719
 34
0.0
100
AcDbRotatedDimension
1001
ACAD
1000
DSTYLE
1002
{
1070
    40
1040
2.0
1002
}
  0
DIMENSION
  5
897F
330
1F
100
AcDbEntity
  8
DIM
100
AcDbDimension
  2
*D14
 10
26.29659807528316
 20
16.02186888320346
 30
0.0
 11
25.60659807528316
 21
16.02186888320346
 31
0.0
 70
    32
  3
SCHNEIDERELECTRIC
100
AcDbAlignedDimension
 13
24.91659807528316
 23
15.58131596861719
 33
0.0
 14
26.29659807528316
 24
15.58131596861719
 34
0.0
100
AcDbRotatedDimension
1001
ACAD
1000
DSTYLE
1002
{
1070
    40
1040
2.0
1002
}
  0
DIMENSION
  5
89B5
330
1F
100
AcDbEntity
  8
DIM
100
AcDbDimension
  2
*D15
 10
26.29659807528316
 20
6.986851410143925
 30
0.0
 11
25.43159807528316
 21
6.986851410143925
 31
0.0
 70
    32
  3
SCHNEIDERELECTRIC
100
AcDbAlignedDimension
 13
24.56659807528316
 23
8.028815968617191
 33
0.0
 14
26.29659807528316
 24
7.941315968617193
 34
0.0
100
AcDbRotatedDimension
1001
ACAD
1000
DSTYLE
1002
{
1070
    40
1040
2.0
1002
}
  0
DIMENSION
  5
89DF
330
1F
100
AcDbEntity
  8
DIM
100
AcDbDimension
  2
*D16
 10
26.29659807528316
 20
7.411715449437096
 30
0.0
 11
25.63659807528316
 21
7.411715449437096
 31
0.0
 70
    32
  3
SCHNEIDERELECTRIC
100
AcDbAlignedDimension
 13
24.97659807528316
 23
7.941315968617189
 33
0.0
 14
26.29659807528316
 24
7.941315968617189
 34
0.0
100
AcDbRotatedDimension
1001
ACAD
1000
DSTYLE
1002
{
1070
    40
1040
2.0
1002
}
  0
DIMENSION
  5
8A34
330
1F
100
AcDbEntity
  8
DIM
100
AcDbDimension
  2
*D17
 10
24.12827015878888
 20
12.18381596861719
 30
0.0
 11
24.12827015878887
 21
11.49381596861719
 31
0.0
 70
   160
  3
SCHNEIDERELECTRIC
100
AcDbAlignedDimension
 13
24.61459807528315
 23
10.80381596861719
 33
0.0
 14
24.64659807528316
 24
12.18381596861719
 34
0.0
 50
90.0
100
AcDbRotatedDimension
1001
ACAD
1000
DSTYLE
1002
{
1070
    40
1040
2.0
1002
}
  0
LEADER
  5
8ABC
330
1F
100
AcDbEntity
  8
TEXT1
100
AcDbLeader
  3
SCHNEIDERELECTRIC
 40
0.5333333333333333
 41
4.209523809523809
 76
     3
 10
25.47159807528316
 20
7.941315968617193
 30
0.0
 10
26.4358554890899
 20
7.49621019387661
 30
0.0
 10
26.57790057128409
 20
7.49621019387661
 30
0.0
211
-1.0
221
0.0
231
0.0
210
0.0
220
0.0
230
-1.0
213
0.0
223
0.1
233
0.0
1001
ACAD
1000
DSTYLE
1002
{
1070
     5
1000
SEARROW
1070
    40
1040
2.0
1002
}
  0
TEXT
  5
8ABE
330
1F
100
AcDbEntity
  8
TEXT1
100
AcDbText
 10
26.67558169177843
 20
7.39621019387661
 30
0.0
 40
0.2
  1
1/2" NPT
  7
ROMANS
 11
26.67558169177843
 21
7.49621019387661
 31
0.0
100
AcDbText
 73
     2
  0
TEXT
  5
8AC1
330
1F
100
AcDbEntity
  8
TEXT1
100
AcDbText
 10
26.67558169177843
 20
7.062876860543276
 30
0.0
 40
0.2
  1
CONDUIT
  7
ROMANS
 11
26.67558169177843
 21
7.162876860543276
 31
0.0
100
AcDbText
 73
     2
  0
DIMENSION
  5
8B83
330
1F
100
AcDbEntity
  8
DIM
100
AcDbDimension
  2
*D24
 10
18.38278663971648
 20
15.58131596861719
 30
0.0
 11
18.38278663971648
 21
11.76131596861719
 31
0.0
 70
    32
  3
SCHNEIDERELECTRIC
100
AcDbAlignedDimension
 13
20.97144633099421
 23
7.941315968617191
 33
0.0
 14
21.17144633099422
 24
15.58131596861719
 34
0.0
 50
270.0
100
AcDbRotatedDimension
1001
ACAD
1000
DSTYLE
1002
{
1070
    40
1040
2.0
1002
}
  0
DIMENSION
  5
8B84
330
1F
100
AcDbEntity
  8
DIM
100
AcDbDimension
  2
*D28
 10
17.63942464324122
 20
16.39917082007714
 30
0.0
 11
16.81442464324122
 21
16.39917082007714
 31
0.0
 70
    32
  3
SCHNEIDERELECTRIC
100
AcDbAlignedDimension
 13
15.98942464324123
 23
12.45381596861719
 33
0.0
 14
17.63942464324122
 24
15.58131596861719
 34
0.0
100
AcDbRotatedDimension
1001
ACAD
1000
DSTYLE
1002
{
1070
    40
1040
2.0
1002
}
  0
LINE
  5
8B85
330
1F
100
AcDbEntity
  8
CONTINUOUS1
100
AcDbLine
 10
16.25942464324122
 20
12.45381596861718
 30
0.0
 11
16.25942464324122
 21
15.58131596861719
 31
0.0
  0
LINE
  5
8B86
330
1F
100
AcDbEntity
  8
CONTINUOUS1
100
AcDbLine
 10
17.63942464324122
 20
7.941315968617191
 30
0.0
 11
17.63942464324122
 21
15.58131596861719
 31
0.0
  0
LINE
  5
8B87
330
1F
100
AcDbEntity
  8
CONTINUOUS1
100
AcDbLine
 10
16.19442464324122
 20
7.941315968617191
 30
0.0
 11
16.19442464324124
 21
10.99131596861719
 31
0.0
  0
LINE
  5
8B88
330
1F
100
AcDbEntity
  8
CONTINUOUS1
100
AcDbLine
 10
16.11442464324122
 20
7.941315968617193
 30
0.0
 11
16.11442464324122
 21
10.99131596861719
 31
0.0
  0
LINE
  5
8B89
330
1F
100
AcDbEntity
  8
CONTINUOUS1
100
AcDbLine
 10
15.98942464324122
 20
7.941315968617193
 30
0.0
 11
15.98942464324122
 21
10.99131596861719
 31
0.0
  0
LWPOLYLINE
  5
8B8A
330
1F
100
AcDbEntity
  8
CONTINUOUS1
100
AcDbPolyline
 90
        8
 70
     1
 43
0.0
 10
15.90942464324122
 20
8.144815968617194
 10
15.95742464324121
 20
8.144815968617194
 10
15.95742464324121
 20
8.112815968617191
 10
15.90942464324122
 20
8.112815968617191
 10
15.90942464324122
 20
8.028815968617193
 10
15.98942464324122
 20
8.028815968617193
 10
15.98942464324122
 20
8.228815968617192
 10
15.90942464324122
 20
8.228815968617192
  0
DIMENSION
  5
8B8B
330
1F
100
AcDbEntity
  8
DIM
100
AcDbDimension
  2
*D30
 10
17.63942464324122
 20
6.986851410143927
 30
0.0
 11
16.77442464324122
 21
6.986851410143927
 31
0.0
 70
    32
  3
SCHNEIDERELECTRIC
100
AcDbAlignedDimension
 13
15.90942464324122
 23
8.028815968617193
 33
0.0
 14
17.63942464324122
 24
7.941315968617194
 34
0.0
100
AcDbRotatedDimension
1001
ACAD
1000
DSTYLE
1002
{
1070
    40
1040
2.0
1002
}
  0
LINE
  5
8B8D
330
1F
100
AcDbEntity
  8
CONTINUOUS1
100
AcDbLine
 10
16.31942464324122
 20
7.941315968617191
 30
0.0
 11
16.31942464324122
 21
8.60381596861719
 31
0.0
  0
DIMENSION
  5
8B8E
330
1F
100
AcDbEntity
  8
DIM
100
AcDbDimension
  2
*D31
 10
17.63942464324122
 20
7.411715449437098
 30
0.0
 11
16.97942464324122
 21
7.411715449437098
 31
0.0
 70
    32
  3
SCHNEIDERELECTRIC
100
AcDbAlignedDimension
 13
16.31942464324122
 23
7.941315968617191
 33
0.0
 14
17.63942464324122
 24
7.941315968617191
 34
0.0
100
AcDbRotatedDimension
1001
ACAD
1000
DSTYLE
1002
{
1070
    40
1040
2.0
1002
}
  0
LINE
  5
8B8F
330
1F
100
AcDbEntity
  8
CONTINUOUS1
100
AcDbLine
 10
17.63942464324122
 20
7.941315968617194
 30
0.0
 11
15.98942464324122
 21
7.941315968617193
 31
0.0
  0
LINE
  5
8B90
330
1F
100
AcDbEntity
  8
CONTINUOUS1
100
AcDbLine
 10
16.31942464324122
 20
8.60381596861719
 30
0.0
 11
15.98942464324123
 21
8.603815968617189
 31
0.0
  0
LWPOLYLINE
  5
8B91
330
1F
100
AcDbEntity
  8
CONTINUOUS1
100
AcDbPolyline
 90
        8
 70
     1
 43
0.0
 10
15.90942464324122
 20
10.78781596861719
 10
15.95742464324121
 20
10.78781596861719
 10
15.95742464324121
 20
10.81981596861719
 10
15.90942464324122
 20
10.81981596861719
 10
15.90942464324122
 20
10.90381596861719
 10
15.98942464324122
 20
10.90381596861719
 10
15.98942464324122
 20
10.70381596861719
 10
15.90942464324122
 20
10.70381596861719
  0
DIMENSION
  5
8B92
330
1F
100
AcDbEntity
  8
DIM
100
AcDbDimension
  2
*D32
 10
15.47109672674694
 20
12.18381596861719
 30
0.0
 11
15.47109672674694
 21
11.4938159686172
 31
0.0
 70
   160
  3
SCHNEIDERELECTRIC
100
AcDbAlignedDimension
 13
15.95742464324121
 23
10.80381596861719
 33
0.0
 14
15.98942464324123
 24
12.18381596861719
 34
0.0
 50
90.0
100
AcDbRotatedDimension
1001
ACAD
1000
DSTYLE
1002
{
1070
    40
1040
2.0
1002
}
  0
LINE
  5
8B93
330
1F
100
AcDbEntity
  8
CONTINUOUS1
100
AcDbLine
 10
15.98942464324122
 20
11.45381596861718
 30
0.0
 11
15.98942464324123
 21
12.45381596861719
 31
0.0
  0
LINE
  5
8B94
330
1F
100
AcDbEntity
  8
CONTINUOUS1
100
AcDbLine
 10
17.63942464324122
 20
11.45381596861718
 30
0.0
 11
15.98942464324122
 21
11.45381596861718
 31
0.0
  0
LINE
  5
8B95
330
1F
100
AcDbEntity
  8
CONTINUOUS1
100
AcDbLine
 10
17.63942464324122
 20
10.99131596861719
 30
0.0
 11
15.98942464324123
 21
10.99131596861719
 31
0.0
  0
LINE
  5
8B96
330
1F
100
AcDbEntity
  8
CONTINUOUS1
100
AcDbLine
 10
16.31942464324122
 20
10.32881596861719
 30
0.0
 11
16.31942464324122
 21
10.99131596861719
 31
0.0
  0
LINE
  5
8B97
330
1F
100
AcDbEntity
  8
CONTINUOUS1
100
AcDbLine
 10
16.31942464324122
 20
10.32881596861719
 30
0.0
 11
15.98942464324122
 21
10.32881596861719
 31
0.0
  0
LINE
  5
8B98
330
1F
100
AcDbEntity
  8
CONTINUOUS1
100
AcDbLine
 10
16.25942464324122
 20
10.99131596861719
 30
0.0
 11
16.25942464324122
 21
11.45381596861718
 31
0.0
  0
LINE
  5
8B99
330
1F
100
AcDbEntity
  8
CONTINUOUS1
100
AcDbLine
 10
16.50942464324122
 20
11.19131596861719
 30
0.0
 11
16.25942464324122
 21
11.19131596861719
 31
0.0
  0
LINE
  5
8B9A
330
1F
100
AcDbEntity
  8
CONTINUOUS1
100
AcDbLine
 10
16.50942464324122
 20
10.99131596861719
 30
0.0
 11
16.50942464324122
 21
11.19131596861719
 31
0.0
  0
LINE
  5
8B9B
330
1F
100
AcDbEntity
  8
CONTINUOUS1
100
AcDbLine
 10
17.38942464324122
 20
11.19131596861719
 30
0.0
 11
17.63942464324122
 21
11.19131596861719
 31
0.0
  0
LINE
  5
8B9C
330
1F
100
AcDbEntity
  8
CONTINUOUS1
100
AcDbLine
 10
17.38942464324122
 20
10.99131596861719
 30
0.0
 11
17.38942464324122
 21
11.19131596861719
 31
0.0
  0
LINE
  5
8B9D
330
1F
100
AcDbEntity
  8
CONTINUOUS1
100
AcDbLine
 10
17.63942464324122
 20
12.95381596861718
 30
0.0
 11
16.25942464324122
 21
12.95381596861718
 31
0.0
  0
LINE
  5
8B9E
330
1F
100
AcDbEntity
  8
CENTER1
100
AcDbLine
 10
17.63942464324122
 20
12.18381596861719
 30
0.0
 11
15.98942464324122
 21
12.18381596861719
 31
0.0
  0
LINE
  5
8B9F
330
1F
100
AcDbEntity
  8
HIDDEN1
100
AcDbLine
 10
17.63942464324122
 20
12.08381596861719
 30
0.0
 11
16.11942464324122
 21
12.08381596861719
 31
0.0
  0
LINE
  5
8BA0
330
1F
100
AcDbEntity
  8
HIDDEN1
100
AcDbLine
 10
17.63942464324122
 20
12.32381596861718
 30
0.0
 11
16.11942464324122
 21
12.32381596861719
 31
0.0
  0
LINE
  5
8BA1
330
1F
100
AcDbEntity
  8
CONTINUOUS1
100
AcDbLine
 10
17.63942464324122
 20
11.95381596861718
 30
0.0
 11
15.98942464324122
 21
11.95381596861718
 31
0.0
  0
LINE
  5
8BA2
330
1F
100
AcDbEntity
  8
CONTINUOUS1
100
AcDbLine
 10
17.63942464324122
 20
12.45381596861718
 30
0.0
 11
15.98942464324123
 21
12.45381596861719
 31
0.0
  0
LINE
  5
8BA3
330
1F
100
AcDbEntity
  8
HIDDEN1
100
AcDbLine
 10
15.98942464324122
 20
12.45381596861719
 30
0.0
 11
16.11942464324122
 21
12.32381596861719
 31
0.0
  0
LINE
  5
8BA4
330
1F
100
AcDbEntity
  8
HIDDEN1
100
AcDbLine
 10
15.98942464324122
 20
11.95381596861718
 30
0.0
 11
16.11942464324122
 21
12.08381596861719
 31
0.0
  0
DIMENSION
  5
8BA5
330
1F
100
AcDbEntity
  8
DIM
100
AcDbDimension
  2
*D29
 10
17.63942464324122
 20
16.02186888320347
 30
0.0
 11
16.94942464324122
 21
16.02186888320347
 31
0.0
 70
    32
  3
SCHNEIDERELECTRIC
100
AcDbAlignedDimension
 13
16.25942464324122
 23
15.58131596861719
 33
0.0
 14
17.63942464324122
 24
15.58131596861719
 34
0.0
100
AcDbRotatedDimension
1001
ACAD
1000
DSTYLE
1002
{
1070
    40
1040
2.0
1002
}
  0
LINE
  5
8BA6
330
1F
100
AcDbEntity
  8
CONTINUOUS1
100
AcDbLine
 10
17.63942464324122
 20
15.58131596861719
 30
0.0
 11
16.25942464324122
 21
15.58131596861719
 31
0.0
  0
LINE
  5
8BA7
330
1F
100
AcDbEntity
  8
CONTINUOUS1
100
AcDbLine
 10
16.50942464324122
 20
15.38131596861719
 30
0.0
 11
16.25942464324122
 21
15.38131596861719
 31
0.0
  0
LINE
  5
8BA8
330
1F
100
AcDbEntity
  8
CONTINUOUS1
100
AcDbLine
 10
16.50942464324122
 20
15.44131596861719
 30
0.0
 11
16.25942464324122
 21
15.44131596861719
 31
0.0
  0
LINE
  5
8BA9
330
1F
100
AcDbEntity
  8
CONTINUOUS1
100
AcDbLine
 10
16.36442464324122
 20
15.53363710868246
 30
0.0
 11
16.36442464324122
 21
15.47363710868246
 31
0.0
  0
LINE
  5
8BAA
330
1F
100
AcDbEntity
  8
CONTINUOUS1
100
AcDbLine
 10
16.40442464324122
 20
15.53363710868246
 30
0.0
 11
16.40442464324122
 21
15.47363710868246
 31
0.0
  0
LINE
  5
8BAB
330
1F
100
AcDbEntity
  8
CONTINUOUS1
100
AcDbLine
 10
16.36442464324122
 20
15.47363710868246
 30
0.0
 11
16.40442464324122
 21
15.47363710868246
 31
0.0
  0
ARC
  5
8BAC
330
1F
100
AcDbEntity
  8
CONTINUOUS1
100
AcDbCircle
 10
16.38442464324122
 20
15.40285345021659
 30
0.0
 40
0.1307836584658657
100
AcDbArc
 50
98.7964325055179
 51
162.8968607080939
  0
LINE
  5
8BAD
330
1F
100
AcDbEntity
  8
CONTINUOUS1
100
AcDbLine
 10
16.50942464324122
 20
15.58131596861719
 30
0.0
 11
16.50942464324122
 21
15.38131596861719
 31
0.0
  0
ARC
  5
8BAE
330
1F
100
AcDbEntity
  8
CONTINUOUS1
100
AcDbCircle
 10
16.38442464324122
 20
15.40285345021659
 30
0.0
 40
0.1307836584658657
100
AcDbArc
 50
17.10313929190604
 51
81.20356749448211
  0
LINE
  5
8BAF
330
1F
100
AcDbEntity
  8
CONTINUOUS1
100
AcDbLine
 10
17.53442464324122
 20
15.47363710868246
 30
0.0
 11
17.49442464324122
 21
15.47363710868246
 31
0.0
  0
LINE
  5
8BB0
330
1F
100
AcDbEntity
  8
CONTINUOUS1
100
AcDbLine
 10
17.38942464324122
 20
15.38131596861719
 30
0.0
 11
17.63942464324122
 21
15.38131596861719
 31
0.0
  0
LINE
  5
8BB1
330
1F
100
AcDbEntity
  8
CONTINUOUS1
100
AcDbLine
 10
17.38942464324122
 20
15.44131596861719
 30
0.0
 11
17.63942464324122
 21
15.44131596861719
 31
0.0
  0
LINE
  5
8BB2
330
1F
100
AcDbEntity
  8
CONTINUOUS1
100
AcDbLine
 10
17.49442464324122
 20
15.53363710868246
 30
0.0
 11
17.49442464324122
 21
15.47363710868246
 31
0.0
  0
LINE
  5
8BB3
330
1F
100
AcDbEntity
  8
CONTINUOUS1
100
AcDbLine
 10
17.38942464324122
 20
15.58131596861719
 30
0.0
 11
17.38942464324122
 21
15.38131596861719
 31
0.0
  0
ARC
  5
8BB4
330
1F
100
AcDbEntity
  8
CONTINUOUS1
100
AcDbCircle
 10
17.51442464324122
 20
15.40285345021659
 30
0.0
 40
0.1307836584658657
100
AcDbArc
 50
98.7964325055179
 51
162.8968607080939
  0
LINE
  5
8BB5
330
1F
100
AcDbEntity
  8
CONTINUOUS1
100
AcDbLine
 10
17.53442464324122
 20
15.53363710868246
 30
0.0
 11
17.53442464324122
 21
15.47363710868246
 31
0.0
  0
ARC
  5
8BB6
330
1F
100
AcDbEntity
  8
CONTINUOUS1
100
AcDbCircle
 10
17.51442464324122
 20
15.40285345021659
 30
0.0
 40
0.1307836584658657
100
AcDbArc
 50
17.10313929190605
 51
81.20356749448211
  0
LWPOLYLINE
  5
8BB7
330
1F
100
AcDbEntity
  8
CONTINUOUS1
100
AcDbPolyline
 90
        4
 70
     1
 43
0.0
 10
21.07144633099423
 20
14.23881596861718
 10
21.07144633099422
 20
13.03881596861718
 10
20.97144633099422
 20
13.03881596861718
 10
20.97144633099422
 20
14.23881596861718
  0
LWPOLYLINE
  5
8BB8
330
1F
100
AcDbEntity
  8
CONTINUOUS1
100
AcDbPolyline
 90
        5
 70
     0
 43
0.0
 10
21.17144633099422
 20
12.45381596861718
 10
22.55144633099422
 20
12.45381596861718
 10
22.55144633099422
 20
15.58131596861719
 10
21.17144633099422
 20
15.58131596861719
 10
21.17144633099422
 20
10.99131596861719
  0
DIMENSION
  5
8BB9
330
1F
100
AcDbEntity
  8
DIM
100
AcDbDimension
  2
*D20
 10
19.02148066146195
 20
15.58131596861719
 30
0.0
 11
19.02148066146195
 21
13.13631596861719
 31
0.0
 70
    32
  3
SCHNEIDERELECTRIC
100
AcDbAlignedDimension
 13
20.97144633099421
 23
10.69131596861719
 33
0.0
 14
21.17144633099422
 24
15.58131596861719
 34
0.0
 50
270.0
100
AcDbRotatedDimension
1001
ACAD
1000
DSTYLE
1002
{
1070
    40
1040
2.0
1002
}
  0
LWPOLYLINE
  5
8BBA
330
1F
100
AcDbEntity
  8
CONTINUOUS1
100
AcDbPolyline
 90
        5
 70
     0
 43
0.0
 10
20.97144633099423
 20
14.13881596861718
 10
19.56144633099421
 20
14.13881596861718
 10
19.56144633099421
 20
12.45381596861718
 10
20.56144633099422
 20
12.45381596861718
 10
20.56144633099422
 20
13.13881596861718
  0
DIMENSION
  5
8BBB
330
1F
100
AcDbEntity
  8
DIM
100
AcDbDimension
  2
*D27
 10
22.26949969161221
 20
8.305667295409023
 30
0.0
 11
23.6169645935081
 21
8.71678278518042
 31
0.0
 70
   163
  1
\P<>x.29\PSLOT
  3
SCHNEIDERELECTRIC
100
AcDbDiametricDimension
 15
22.43339297037623
 25
8.436964641825372
 35
0.0
 40
0.0
1001
ACAD
1000
DSTYLE
1002
{
1070
   141
1040
0.0
1070
    40
1040
2.0
1002
}
  0
LWPOLYLINE
  5
8BBC
330
1F
100
AcDbEntity
  8
CONTINUOUS1
100
AcDbPolyline
 90
        4
 70
     1
 43
0.0
 10
22.55144633099421
 20
7.941315968617191
 10
22.55144633099421
 20
10.99131596861719
 10
20.97144633099421
 20
10.99131596861719
 10
20.97144633099421
 20
7.941315968617191
  0
LINE
  5
8BBD
330
1F
100
AcDbEntity
  8
CENTER1
100
AcDbLine
 10
22.35144633099421
 20
7.941315968617191
 30
0.0
 11
22.35144633099421
 21
10.99131596861719
 31
0.0
  0
LINE
  5
8BBE
330
1F
100
AcDbEntity
  8
CENTER1
100
AcDbLine
 10
21.17144633099421
 20
7.941315968617191
 30
0.0
 11
21.17144633099421
 21
10.99131596861719
 31
0.0
  0
LINE
  5
8BBF
330
1F
100
AcDbEntity
  8
CONTINUOUS1
100
AcDbLine
 10
22.45144633099421
 20
8.603815968617192
 30
0.0
 11
22.45144633099421
 21
10.32881596861719
 31
0.0
  0
LINE
  5
8BC0
330
1F
100
AcDbEntity
  8
CONTINUOUS1
100
AcDbLine
 10
21.07144633099421
 20
10.32881596861719
 30
0.0
 11
21.07144633099422
 21
8.603815968617192
 31
0.0
  0
CIRCLE
  5
8BC1
330
1F
100
AcDbEntity
  8
CONTINUOUS1
100
AcDbCircle
 10
21.47963984827693
 20
9.920622451334473
 30
0.0
 40
0.09375
  0
DIMENSION
  5
8BC2
330
1F
100
AcDbEntity
  8
DIM
100
AcDbDimension
  2
*D21
 10
19.02148066146195
 20
10.69131596861719
 30
0.0
 11
19.02148066146195
 21
9.511315968617195
 31
0.0
 70
    32
  3
SCHNEIDERELECTRIC
100
AcDbAlignedDimension
 13
20.97144633099421
 23
8.331315968617191
 33
0.0
 14
20.97144633099421
 24
10.69131596861719
 34
0.0
 50
270.0
100
AcDbRotatedDimension
1001
ACAD
1000
DSTYLE
1002
{
1070
    40
1040
2.0
1002
}
  0
LINE
  5
8BC3
330
1F
100
AcDbEntity
  8
CENTER1
100
AcDbLine
 10
20.97144633099421
 20
8.331315968617191
 30
0.0
 11
22.55144633099422
 21
8.331315968617191
 31
0.0
  0
DIMENSION
  5
8BC4
330
1F
100
AcDbEntity
  8
DIM
100
AcDbDimension
  2
*D23
 10
22.35144633099421
 20
7.411715449437098
 30
0.0
 11
21.76144633099422
 21
7.411715449437098
 31
0.0
 70
    32
  3
SCHNEIDERELECTRIC
100
AcDbAlignedDimension
 13
21.17144633099421
 23
7.941315968617191
 33
0.0
 14
22.35144633099421
 24
7.941315968617191
 34
0.0
100
AcDbRotatedDimension
1001
ACAD
1000
DSTYLE
1002
{
1070
    40
1040
2.0
1002
}
  0
DIMENSION
  5
8BC5
330
1F
100
AcDbEntity
  8
DIM
100
AcDbDimension
  2
*D22
 10
22.55144633099421
 20
6.986851410143927
 30
0.0
 11
21.76144633099422
 21
6.986851410143927
 31
0.0
 70
    32
  3
SCHNEIDERELECTRIC
100
AcDbAlignedDimension
 13
20.97144633099421
 23
7.941315968617191
 33
0.0
 14
22.55144633099421
 24
7.941315968617191
 34
0.0
100
AcDbRotatedDimension
1001
ACAD
1000
DSTYLE
1002
{
1070
    40
1040
2.0
1002
}
  0
LWPOLYLINE
  5
8BC6
330
1F
100
AcDbEntity
  8
CONTINUOUS1
100
AcDbPolyline
 90
        4
 70
     0
 43
0.0
 10
20.97144633099421
 20
8.503815968617191
 10
21.19894633099421
 20
8.503815968617191
 42
-0.4142135623730922
 10
21.38644633099421
 20
8.316315968617193
 10
21.38644633099421
 20
7.941315968617191
  0
LWPOLYLINE
  5
8BC7
330
1F
100
AcDbEntity
  8
CONTINUOUS1
100
AcDbPolyline
 90
        4
 70
     0
 43
0.0
 10
22.13644633099421
 20
7.941315968617191
 10
22.13644633099421
 20
8.316315968617191
 42
-0.4142135623730951
 10
22.32394633099421
 20
8.503815968617191
 10
22.55144633099421
 20
8.503815968617191
  0
CIRCLE
  5
8BC8
330
1F
100
AcDbEntity
  8
CONTINUOUS1
100
AcDbCircle
 10
21.17144633099421
 20
8.331315968617191
 30
0.0
 40
0.105
  0
LWPOLYLINE
  5
8BC9
330
1F
100
AcDbEntity
  8
CONTINUOUS1
100
AcDbPolyline
 90
        4
 70
     1
 43
0.0
 10
22.45644633099421
 20
8.291315968617192
 10
22.45644633099421
 20
8.37131596861719
 42
0.9999999999999998
 10
22.24644633099421
 20
8.37131596861719
 10
22.24644633099421
 20
8.291315968617192
 42
0.9999999999999998
  0
CIRCLE
  5
8BCA
330
1F
100
AcDbEntity
  8
CONTINUOUS1
100
AcDbCircle
 10
21.76144633099421
 20
8.128815968617191
 30
0.0
 40
0.1
  0
LINE
  5
8BCB
330
1F
100
AcDbEntity
  8
0
100
AcDbLine
 10
21.66157140921702
 20
8.133815968617193
 30
0.0
 11
21.8613212527714
 21
8.133815968617197
 31
0.0
  0
LINE
  5
8BCC
330
1F
100
AcDbEntity
  8
0
100
AcDbLine
 10
21.66157140921702
 20
8.123815968617197
 30
0.0
 11
21.8613212527714
 21
8.123815968617199
 31
0.0
  0
LINE
  5
8BCD
330
1F
100
AcDbEntity
  8
CONTINUOUS1
100
AcDbLine
 10
21.07144633099422
 20
8.603815968617192
 30
0.0
 11
22.45144633099421
 21
8.603815968617192
 31
0.0
  0
LWPOLYLINE
  5
8BCE
330
1F
100
AcDbEntity
  8
CONTINUOUS1
100
AcDbPolyline
 90
        4
 70
     0
 43
0.0
 10
20.97144633099421
 20
10.42881596861719
 10
21.19894633099421
 20
10.42881596861719
 42
0.4142135623730922
 10
21.38644633099421
 20
10.61631596861719
 10
21.38644633099421
 20
10.99131596861719
  0
LINE
  5
8BCF
330
1F
100
AcDbEntity
  8
CENTER1
100
AcDbLine
 10
22.55144633099421
 20
10.69131596861719
 30
0.0
 11
20.97144633099421
 21
10.69131596861719
 31
0.0
  0
LINE
  5
8BD0
330
1F
100
AcDbEntity
  8
CONTINUOUS1
100
AcDbLine
 10
20.97144633099423
 20
13.13881596861718
 30
0.0
 11
19.56144633099422
 21
13.13881596861718
 31
0.0
  0
LWPOLYLINE
  5
8BD1
330
1F
100
AcDbEntity
  8
CONTINUOUS1
100
AcDbPolyline
 90
        6
 70
     1
 43
0.0
 10
19.56144633099422
 20
12.25381596861718
 10
19.81144633099422
 20
12.15381596861718
 10
20.31144633099422
 20
12.15381596861718
 10
20.56144633099422
 20
12.25381596861718
 10
20.56144633099422
 20
12.35381596861718
 10
19.56144633099421
 20
12.35381596861718
  0
LINE
  5
8BD2
330
1F
100
AcDbEntity
  8
CONTINUOUS1
100
AcDbLine
 10
19.66144633099422
 20
12.35381596861718
 30
0.0
 11
19.66144633099422
 21
12.45381596861718
 31
0.0
  0
LINE
  5
8BD3
330
1F
100
AcDbEntity
  8
CONTINUOUS1
100
AcDbLine
 10
20.46144633099422
 20
12.35381596861718
 30
0.0
 11
20.46144633099422
 21
12.45381596861718
 31
0.0
  0
LINE
  5
8BD4
330
1F
100
AcDbEntity
  8
CONTINUOUS1
100
AcDbLine
 10
19.81144633099422
 20
12.35381596861718
 30
0.0
 11
19.81144633099422
 21
12.15381596861718
 31
0.0
  0
LINE
  5
8BD5
330
1F
100
AcDbEntity
  8
CONTINUOUS1
100
AcDbLine
 10
20.31144633099422
 20
12.35381596861718
 30
0.0
 11
20.31144633099422
 21
12.15381596861718
 31
0.0
  0
LINE
  5
8BD6
330
1F
100
AcDbEntity
  8
CONTINUOUS1
100
AcDbLine
 10
22.45144633099421
 20
10.99131596861719
 30
0.0
 11
22.45144633099421
 21
12.45381596861718
 31
0.0
  0
LINE
  5
8BD7
330
1F
100
AcDbEntity
  8
CONTINUOUS1
100
AcDbLine
 10
22.20144633099421
 20
11.19131596861719
 30
0.0
 11
22.45144633099421
 21
11.19131596861719
 31
0.0
  0
LWPOLYLINE
  5
8BD8
330
1F
100
AcDbEntity
  8
CONTINUOUS1
100
AcDbPolyline
 90
        4
 70
     0
 43
0.0
 10
22.13644633099421
 20
10.99131596861719
 10
22.13644633099421
 20
10.61631596861719
 42
0.4142135623730951
 10
22.32394633099421
 20
10.42881596861719
 10
22.55144633099421
 20
10.42881596861719
  0
CIRCLE
  5
8BD9
330
1F
100
AcDbEntity
  8
CONTINUOUS1
100
AcDbCircle
 10
22.35144633099421
 20
10.69131596861719
 30
0.0
 40
0.105
  0
LINE
  5
8BDA
330
1F
100
AcDbEntity
  8
CONTINUOUS1
100
AcDbLine
 10
21.07144633099421
 20
10.32881596861719
 30
0.0
 11
22.45144633099421
 21
10.32881596861719
 31
0.0
  0
DIMENSION
  5
8BDB
330
1F
100
AcDbEntity
  8
DIM
100
AcDbDimension
  2
*D26
 10
22.28007913255824
 20
10.61429828891052
 30
0.0
 11
23.27410745065095
 21
11.15669125315103
 31
0.0
 70
   163
  3
SCHNEIDERELECTRIC
100
AcDbDiametricDimension
 15
22.42281352943021
 25
10.76833364832387
 35
0.0
 40
0.0
1001
ACAD
1000
DSTYLE
1002
{
1070
   141
1040
0.0
1070
    40
1040
2.0
1002
}
  0
CIRCLE
  5
8BDC
330
1F
100
AcDbEntity
  8
CONTINUOUS1
100
AcDbCircle
 10
21.76144633099421
 20
10.80381596861719
 30
0.0
 40
0.1
  0
LWPOLYLINE
  5
8BDD
330
1F
100
AcDbEntity
  8
CONTINUOUS1
100
AcDbPolyline
 90
        4
 70
     1
 43
0.0
 10
21.27644633099421
 20
10.65131596861719
 10
21.27644633099421
 20
10.73131596861719
 42
0.9999999999999998
 10
21.06644633099421
 20
10.73131596861719
 10
21.06644633099421
 20
10.65131596861719
 42
0.9999999999999998
  0
LINE
  5
8BDE
330
1F
100
AcDbEntity
  8
0
100
AcDbLine
 10
21.66157140921702
 20
10.80881596861718
 30
0.0
 11
21.8613212527714
 21
10.80881596861718
 31
0.0
  0
LINE
  5
8BDF
330
1F
100
AcDbEntity
  8
0
100
AcDbLine
 10
21.66157140921702
 20
10.79881596861719
 30
0.0
 11
21.8613212527714
 21
10.79881596861718
 31
0.0
  0
LINE
  5
8BE0
330
1F
100
AcDbEntity
  8
CONTINUOUS1
100
AcDbLine
 10
21.42144633099423
 20
11.19131596861719
 30
0.0
 11
21.17144633099422
 21
11.19131596861719
 31
0.0
  0
LINE
  5
8BE1
330
1F
100
AcDbEntity
  8
CONTINUOUS1
100
AcDbLine
 10
21.42144633099423
 20
10.99131596861719
 30
0.0
 11
21.42144633099423
 21
11.19131596861719
 31
0.0
  0
LINE
  5
8BE2
330
1F
100
AcDbEntity
  8
CONTINUOUS1
100
AcDbLine
 10
22.20144633099421
 20
10.99131596861719
 30
0.0
 11
22.20144633099421
 21
11.19131596861719
 31
0.0
  0
LINE
  5
8BE3
330
1F
100
AcDbEntity
  8
CONTINUOUS1
100
AcDbLine
 10
22.45144633099421
 20
11.95381596861718
 30
0.0
 11
21.96144633099421
 21
11.95381596861718
 31
0.0
  0
LINE
  5
8BE4
330
1F
100
AcDbEntity
  8
CONTINUOUS1
100
AcDbLine
 10
22.55144633099421
 20
12.95381596861718
 30
0.0
 11
21.17144633099422
 21
12.95381596861718
 31
0.0
  0
DIMENSION
  5
8BE5
330
1F
100
AcDbEntity
  8
DIM
100
AcDbDimension
  2
*D25
 10
22.77286401839444
 20
12.30381596861718
 30
0.0
 11
23.20238782791824
 21
12.58381596861719
 31
0.0
 70
    32
  3
SCHNEIDERELECTRIC
100
AcDbAlignedDimension
 13
22.10144633099422
 23
12.06381596861718
 33
0.0
 14
22.10144633099421
 24
12.30381596861718
 34
0.0
 50
270.0
100
AcDbRotatedDimension
1001
ACAD
1000
DSTYLE
1002
{
1070
    40
1040
2.0
1002
}
  0
LINE
  5
8BE6
330
1F
100
AcDbEntity
  8
CONTINUOUS1
100
AcDbLine
 10
21.71144633099422
 20
12.06381596861718
 30
0.0
 11
21.66144633099422
 21
12.01381596861718
 31
0.0
  0
LINE
  5
8BE7
330
1F
100
AcDbEntity
  8
CONTINUOUS1
100
AcDbLine
 10
21.71144633099422
 20
11.70381596861718
 30
0.0
 11
21.66144633099422
 21
11.65381596861718
 31
0.0
  0
LWPOLYLINE
  5
8BE8
330
1F
100
AcDbEntity
  8
CONTINUOUS1
100
AcDbPolyline
 90
        8
 70
     1
 43
0.0
 10
21.47144633099423
 20
12.35381596861718
 10
22.15144633099421
 20
12.35381596861718
 10
22.15144633099422
 20
12.01381596861718
 10
21.96144633099422
 20
12.01381596861718
 10
21.96144633099422
 20
11.65381596861718
 10
21.66144633099422
 20
11.65381596861718
 10
21.66144633099422
 20
12.01381596861718
 10
21.47144633099423
 20
12.01381596861718
  0
LWPOLYLINE
  5
8BE9
330
1F
100
AcDbEntity
  8
CONTINUOUS1
100
AcDbPolyline
 90
        8
 70
     1
 43
0.0
 10
21.52144633099422
 20
12.30381596861718
 10
22.10144633099421
 20
12.30381596861718
 10
22.10144633099422
 20
12.06381596861718
 10
21.91144633099422
 20
12.06381596861718
 10
21.91144633099422
 20
11.70381596861718
 10
21.71144633099422
 20
11.70381596861718
 10
21.71144633099422
 20
12.06381596861718
 10
21.52144633099422
 20
12.06381596861718
  0
LINE
  5
8BEA
330
1F
100
AcDbEntity
  8
CONTINUOUS1
100
AcDbLine
 10
21.66144633099422
 20
11.95381596861718
 30
0.0
 11
21.17144633099422
 21
11.95381596861718
 31
0.0
  0
LINE
  5
8BEB
330
1F
100
AcDbEntity
  8
CONTINUOUS1
100
AcDbLine
 10
21.52144633099422
 20
12.06381596861718
 30
0.0
 11
21.47144633099423
 21
12.01381596861718
 31
0.0
  0
LINE
  5
8BEC
330
1F
100
AcDbEntity
  8
CONTINUOUS1
100
AcDbLine
 10
21.52144633099422
 20
12.30381596861718
 30
0.0
 11
21.47144633099423
 21
12.35381596861718
 31
0.0
  0
LINE
  5
8BED
330
1F
100
AcDbEntity
  8
CONTINUOUS1
100
AcDbLine
 10
21.91144633099422
 20
11.70381596861718
 30
0.0
 11
21.96144633099422
 21
11.65381596861718
 31
0.0
  0
LINE
  5
8BEE
330
1F
100
AcDbEntity
  8
CONTINUOUS1
100
AcDbLine
 10
21.91144633099422
 20
12.06381596861718
 30
0.0
 11
21.96144633099422
 21
12.01381596861718
 31
0.0
  0
LINE
  5
8BEF
330
1F
100
AcDbEntity
  8
CONTINUOUS1
100
AcDbLine
 10
22.10144633099422
 20
12.06381596861718
 30
0.0
 11
22.15144633099422
 21
12.01381596861718
 31
0.0
  0
LINE
  5
8BF0
330
1F
100
AcDbEntity
  8
CONTINUOUS1
100
AcDbLine
 10
22.10144633099421
 20
12.30381596861718
 30
0.0
 11
22.15144633099421
 21
12.35381596861718
 31
0.0
  0
LINE
  5
8BF1
330
1F
100
AcDbEntity
  8
CONTINUOUS1
100
AcDbLine
 10
21.17144633099422
 20
13.13881596861718
 30
0.0
 11
21.07144633099422
 21
13.13881596861718
 31
0.0
  0
DIMENSION
  5
8BF2
330
1F
100
AcDbEntity
  8
DIM
100
AcDbDimension
  2
*D19
 10
22.55144633099422
 20
16.39917082007714
 30
0.0
 11
21.05644633099422
 21
16.39917082007714
 31
0.0
 70
    32
  3
SCHNEIDERELECTRIC
100
AcDbAlignedDimension
 13
19.56144633099422
 23
14.13881596861718
 33
0.0
 14
22.55144633099422
 24
15.58131596861719
 34
0.0
100
AcDbRotatedDimension
1001
ACAD
1000
DSTYLE
1002
{
1070
    40
1040
2.0
1002
}
  0
LINE
  5
8BF3
330
1F
100
AcDbEntity
  8
CONTINUOUS1
100
AcDbLine
 10
19.66144633099422
 20
13.26381596861718
 30
0.0
 11
19.66144633099422
 21
14.01381596861718
 31
0.0
  0
LINE
  5
8BF4
330
1F
100
AcDbEntity
  8
CONTINUOUS1
100
AcDbLine
 10
20.36144633099423
 20
13.26381596861719
 30
0.0
 11
20.36144633099423
 21
14.01381596861719
 31
0.0
  0
LINE
  5
8BF5
330
1F
100
AcDbEntity
  8
CONTINUOUS1
100
AcDbLine
 10
20.46144633099423
 20
13.26381596861719
 30
0.0
 11
20.46144633099423
 21
14.01381596861719
 31
0.0
  0
LINE
  5
8BF6
330
1F
100
AcDbEntity
  8
CONTINUOUS1
100
AcDbLine
 10
20.56144633099423
 20
13.26381596861719
 30
0.0
 11
20.56144633099423
 21
14.01381596861719
 31
0.0
  0
LINE
  5
8BF7
330
1F
100
AcDbEntity
  8
CONTINUOUS1
100
AcDbLine
 10
20.66144633099423
 20
13.26381596861719
 30
0.0
 11
20.66144633099423
 21
14.01381596861719
 31
0.0
  0
LINE
  5
8BF8
330
1F
100
AcDbEntity
  8
CONTINUOUS1
100
AcDbLine
 10
20.76144633099424
 20
13.26381596861719
 30
0.0
 11
20.76144633099423
 21
14.01381596861719
 31
0.0
  0
LINE
  5
8BF9
330
1F
100
AcDbEntity
  8
CONTINUOUS1
100
AcDbLine
 10
20.86144633099423
 20
13.26381596861719
 30
0.0
 11
20.86144633099423
 21
14.01381596861719
 31
0.0
  0
LINE
  5
8BFA
330
1F
100
AcDbEntity
  8
CONTINUOUS1
100
AcDbLine
 10
19.76144633099422
 20
13.26381596861718
 30
0.0
 11
19.76144633099422
 21
14.01381596861718
 31
0.0
  0
LINE
  5
8BFB
330
1F
100
AcDbEntity
  8
CONTINUOUS1
100
AcDbLine
 10
19.86144633099422
 20
13.26381596861718
 30
0.0
 11
19.86144633099422
 21
14.01381596861718
 31
0.0
  0
LINE
  5
8BFC
330
1F
100
AcDbEntity
  8
CONTINUOUS1
100
AcDbLine
 10
19.96144633099422
 20
13.26381596861718
 30
0.0
 11
19.96144633099422
 21
14.01381596861718
 31
0.0
  0
LINE
  5
8BFD
330
1F
100
AcDbEntity
  8
CONTINUOUS1
100
AcDbLine
 10
20.06144633099423
 20
13.26381596861718
 30
0.0
 11
20.06144633099422
 21
14.01381596861718
 31
0.0
  0
LINE
  5
8BFE
330
1F
100
AcDbEntity
  8
CONTINUOUS1
100
AcDbLine
 10
20.16144633099423
 20
13.26381596861718
 30
0.0
 11
20.16144633099422
 21
14.01381596861718
 31
0.0
  0
LINE
  5
8BFF
330
1F
100
AcDbEntity
  8
CONTINUOUS1
100
AcDbLine
 10
20.26144633099423
 20
13.26381596861719
 30
0.0
 11
20.26144633099423
 21
14.01381596861718
 31
0.0
  0
LINE
  5
8C00
330
1F
100
AcDbEntity
  8
CONTINUOUS1
100
AcDbLine
 10
21.17144633099422
 20
14.13881596861718
 30
0.0
 11
21.07144633099422
 21
14.13881596861718
 31
0.0
  0
ARC
  5
8C01
330
1F
100
AcDbEntity
  8
CONTINUOUS1
100
AcDbCircle
 10
22.42644633099422
 20
15.40285345021659
 30
0.0
 40
0.1307836584658657
100
AcDbArc
 50
98.7964325055179
 51
162.8968607080939
  0
LINE
  5
8C02
330
1F
100
AcDbEntity
  8
CONTINUOUS1
100
AcDbLine
 10
22.30144633099422
 20
15.38131596861719
 30
0.0
 11
22.55144633099422
 21
15.38131596861719
 31
0.0
  0
LINE
  5
8C03
330
1F
100
AcDbEntity
  8
CONTINUOUS1
100
AcDbLine
 10
22.30144633099422
 20
15.44131596861719
 30
0.0
 11
22.55144633099422
 21
15.44131596861719
 31
0.0
  0
LINE
  5
8C04
330
1F
100
AcDbEntity
  8
CONTINUOUS1
100
AcDbLine
 10
21.17144633099422
 20
14.83131596861719
 30
0.0
 11
22.55144633099422
 21
14.83131596861719
 31
0.0
  0
DIMENSION
  5
8C05
330
1F
100
AcDbEntity
  8
DIM
100
AcDbDimension
  2
*D18
 10
22.55144633099422
 20
16.02186888320347
 30
0.0
 11
21.86144633099422
 21
16.02186888320347
 31
0.0
 70
    32
  3
SCHNEIDERELECTRIC
100
AcDbAlignedDimension
 13
21.17144633099422
 23
15.58131596861719
 33
0.0
 14
22.55144633099422
 24
15.58131596861719
 34
0.0
100
AcDbRotatedDimension
1001
ACAD
1000
DSTYLE
1002
{
1070
    40
1040
2.0
1002
}
  0
CIRCLE
  5
8C06
330
1F
100
AcDbEntity
  8
CONTINUOUS1
100
AcDbCircle
 10
21.86144633099422
 20
15.20631596861719
 30
0.0
 40
0.325
  0
ARC
  5
8C07
330
1F
100
AcDbEntity
  8
CONTINUOUS1
100
AcDbCircle
 10
21.29644633099422
 20
15.40285345021659
 30
0.0
 40
0.1307836584658657
100
AcDbArc
 50
17.10313929190604
 51
81.20356749448211
  0
LINE
  5
8C08
330
1F
100
AcDbEntity
  8
CONTINUOUS1
100
AcDbLine
 10
21.42144633099423
 20
15.38131596861719
 30
0.0
 11
21.17144633099422
 21
15.38131596861719
 31
0.0
  0
LINE
  5
8C09
330
1F
100
AcDbEntity
  8
CONTINUOUS1
100
AcDbLine
 10
21.42144633099423
 20
15.44131596861719
 30
0.0
 11
21.17144633099422
 21
15.44131596861719
 31
0.0
  0
ARC
  5
8C0A
330
1F
100
AcDbEntity
  8
CONTINUOUS1
100
AcDbCircle
 10
21.29644633099422
 20
15.40285345021659
 30
0.0
 40
0.1307836584658657
100
AcDbArc
 50
98.7964325055179
 51
162.8968607080939
  0
LINE
  5
8C0B
330
1F
100
AcDbEntity
  8
CONTINUOUS1
100
AcDbLine
 10
21.27644633099422
 20
15.53363710868246
 30
0.0
 11
21.27644633099422
 21
15.47363710868246
 31
0.0
  0
LINE
  5
8C0C
330
1F
100
AcDbEntity
  8
CONTINUOUS1
100
AcDbLine
 10
21.31644633099423
 20
15.53363710868246
 30
0.0
 11
21.31644633099423
 21
15.47363710868246
 31
0.0
  0
LINE
  5
8C0D
330
1F
100
AcDbEntity
  8
CONTINUOUS1
100
AcDbLine
 10
21.27644633099422
 20
15.47363710868246
 30
0.0
 11
21.31644633099423
 21
15.47363710868246
 31
0.0
  0
LINE
  5
8C0E
330
1F
100
AcDbEntity
  8
CONTINUOUS1
100
AcDbLine
 10
21.42144633099423
 20
15.58131596861719
 30
0.0
 11
21.42144633099423
 21
15.38131596861719
 31
0.0
  0
LINE
  5
8C0F
330
1F
100
AcDbEntity
  8
CONTINUOUS1
100
AcDbLine
 10
21.83644633099422
 20
15.20631596861719
 30
0.0
 11
21.83644633099422
 21
14.88227893369679
 31
0.0
  0
LINE
  5
8C10
330
1F
100
AcDbEntity
  8
CONTINUOUS1
100
AcDbLine
 10
21.88644633099422
 20
15.20631596861719
 30
0.0
 11
21.88644633099422
 21
14.88227893369679
 31
0.0
  0
HATCH
  5
8C11
330
1F
100
AcDbEntity
  8
CONTINUOUS1
100
AcDbHatch
 10
0.0
 20
0.0
 30
0.0
210
0.0
220
0.0
230
1.0
  2
ANSI31
 70
     0
 71
     0
 91
        1
 92
        7
 72
     1
 73
     1
 93
        4
 10
21.88644633099422
 20
15.20631596861719
 42
0.0
 10
21.83644633099422
 20
15.20631596861719
 42
0.0
 10
21.83644633099422
 20
14.88227893369679
 42
0.0385186031842774
 10
21.88644633099422
 20
14.88227893369679
 42
0.0
 97
        0
 75
     0
 76
     1
 52
0.0
 41
0.5
 77
     0
 78
     1
 53
45.0
 43
1.612598429556733
 44
8.304438381828932
 45
-0.0441941738241592
 46
0.0441941738241592
 79
     0
 47
0.0026241073276044
 98
        1
 10
21.87584140988876
 20
15.08000545067192
  0
LINE
  5
8C12
330
1F
100
AcDbEntity
  8
CONTINUOUS1
100
AcDbLine
 10
21.83644633099422
 20
15.20631596861719
 30
0.0
 11
21.88644633099422
 21
15.20631596861719
 31
0.0
  0
LINE
  5
8C13
330
1F
100
AcDbEntity
  8
CONTINUOUS1
100
AcDbLine
 10
22.30144633099422
 20
15.58131596861719
 30
0.0
 11
22.30144633099422
 21
15.38131596861719
 31
0.0
  0
ARC
  5
8C14
330
1F
100
AcDbEntity
  8
CONTINUOUS1
100
AcDbCircle
 10
22.42644633099422
 20
15.40285345021659
 30
0.0
 40
0.1307836584658657
100
AcDbArc
 50
17.10313929190605
 51
81.20356749448211
  0
LINE
  5
8C15
330
1F
100
AcDbEntity
  8
CONTINUOUS1
100
AcDbLine
 10
22.44644633099422
 20
15.53363710868246
 30
0.0
 11
22.44644633099422
 21
15.47363710868246
 31
0.0
  0
LINE
  5
8C16
330
1F
100
AcDbEntity
  8
CONTINUOUS1
100
AcDbLine
 10
22.40644633099421
 20
15.53363710868246
 30
0.0
 11
22.40644633099421
 21
15.47363710868246
 31
0.0
  0
LINE
  5
8C17
330
1F
100
AcDbEntity
  8
CONTINUOUS1
100
AcDbLine
 10
22.44644633099422
 20
15.47363710868246
 30
0.0
 11
22.40644633099421
 21
15.47363710868246
 31
0.0
  0
TEXT
  5
8D65
330
1F
100
AcDbEntity
  8
TEXT1
100
AcDbText
 10
26.67558169177843
 20
6.729543527209942
 30
0.0
 40
0.2
  1
ENTRY
  7
ROMANS
 11
26.67558169177843
 21
6.829543527209942
 31
0.0
100
AcDbText
 73
     2
  0
TEXT
  5
8D66
330
1F
100
AcDbEntity
  8
TEXT1
100
AcDbText
 10
26.67558169177843
 20
6.396210193876608
 30
0.0
 40
0.2
  1

  7
ROMANS
 11
26.67558169177843
 21
6.496210193876608
 31
0.0
100
AcDbText
 73
     2
  0
TEXT
  5
8D67
330
1F
100
AcDbEntity
  8
TEXT1
100
AcDbText
 10
18.24498683059693
 20
6.650104519511074
 30
0.0
 40
0.2
  1
ENTRY
  7
ROMANS
 11
18.24498683059693
 21
6.750104519511074
 31
0.0
100
AcDbText
 73
     2
  0
TEXT
  5
8D68
330
1F
100
AcDbEntity
  8
TEXT1
100
AcDbText
 10
18.24498683059693
 20
6.31677118617774
 30
0.0
 40
0.2
  1

  7
ROMANS
 11
18.24498683059693
 21
6.41677118617774
 31
0.0
100
AcDbText
 73
     2
  0
TEXT
  5
8D69
330
1F
100
AcDbEntity
  8
TEXT1
100
AcDbText
 10
18.24498683059693
 20
6.983437852844408
 30
0.0
 40
0.2
  1
CONDUIT
  7
ROMANS
 11
18.24498683059693
 21
7.083437852844408
 31
0.0
100
AcDbText
 73
     2
  0
TEXT
  5
8D6A
330
1F
100
AcDbEntity
  8
TEXT1
100
AcDbText
 10
18.24498683059693
 20
7.316771186177742
 30
0.0
 40
0.2
  1
1/2" NPT
  7
ROMANS
 11
18.24498683059693
 21
7.416771186177742
 31
0.0
100
AcDbText
 73
     2
  0
LEADER
  5
8D6B
330
1F
100
AcDbEntity
  8
TEXT1
100
AcDbLeader
  3
SCHNEIDERELECTRIC
 40
0.5333333333333333
 41
4.209523809523809
 76
     3
 10
16.81442464324122
 20
7.941315968617194
 30
0.0
 10
17.91627445448526
 20
7.416771186177742
 30
0.0
 10
18.05831953667945
 20
7.416771186177742
 30
0.0
211
-1.0
221
0.0
231
0.0
210
0.0
220
0.0
230
-1.0
213
0.0
223
0.1
233
0.0
1001
ACAD
1000
DSTYLE
1002
{
1070
     5
1000
SEARROW
1070
    40
1040
2.0
1002
}
  0
TEXT
  5
8D6C
330
1F
100
AcDbEntity
  8
TEXT2
100
AcDbText
 10
18.0764397652073
 20
5.260423242530285
 30
0.0
 40
0.2
  1
XCSL*64**
  7
ROMANS
 72
     4
 11
18.86691595568349
 21
5.360423242530284
 31
0.0
100
AcDbText
  0
TEXT
  5
8D6D
330
1F
100
AcDbEntity
  8
TEXT2
100
AcDbText
 10
27.17854402399821
 20
5.260423242530285
 30
0.0
 40
0.2
  1
XCSL*66**
  7
ROMANS
 72
     4
 11
27.9690202144744
 21
5.360423242530284
 31
0.0
100
AcDbText
  0
LINE
  5
8E8C
330
1F
100
AcDbEntity
  8
CONTINUOUS1
100
AcDbLine
 10
31.58809446691795
 20
12.35381596861718
 30
0.0
 11
31.58809446691795
 21
12.15381596861718
 31
0.0
  0
LINE
  5
8E8D
330
1F
100
AcDbEntity
  8
CONTINUOUS1
100
AcDbLine
 10
32.08809446691795
 20
12.35381596861718
 30
0.0
 11
32.08809446691795
 21
12.15381596861718
 31
0.0
  0
LWPOLYLINE
  5
8E8E
330
1F
100
AcDbEntity
  8
CONTINUOUS1
100
AcDbPolyline
 90
        6
 70
     1
 43
0.0
 10
32.33809446691795
 20
12.25381596861718
 10
32.08809446691795
 20
12.15381596861718
 10
31.58809446691795
 20
12.15381596861718
 10
31.33809446691795
 20
12.25381596861718
 10
31.33809446691795
 20
12.35381596861718
 10
32.33809446691795
 20
12.35381596861718
  0
LWPOLYLINE
  5
8E8F
330
1F
100
AcDbEntity
  8
CONTINUOUS1
100
AcDbPolyline
 90
        4
 70
     1
 43
0.0
 10
30.82809446691794
 20
14.23881596861718
 10
30.82809446691795
 20
13.03881596861718
 10
30.92809446691795
 20
13.03881596861718
 10
30.92809446691795
 20
14.23881596861718
  0
LINE
  5
8E90
330
1F
100
AcDbEntity
  8
CONTINUOUS1
100
AcDbLine
 10
31.63809446691794
 20
13.26381596861719
 30
0.0
 11
31.63809446691794
 21
14.01381596861718
 31
0.0
  0
LINE
  5
8E91
330
1F
100
AcDbEntity
  8
CONTINUOUS1
100
AcDbLine
 10
31.73809446691794
 20
13.26381596861718
 30
0.0
 11
31.73809446691794
 21
14.01381596861718
 31
0.0
  0
LINE
  5
8E92
330
1F
100
AcDbEntity
  8
CONTINUOUS1
100
AcDbLine
 10
31.83809446691794
 20
13.26381596861718
 30
0.0
 11
31.83809446691794
 21
14.01381596861718
 31
0.0
  0
LINE
  5
8E93
330
1F
100
AcDbEntity
  8
CONTINUOUS1
100
AcDbLine
 10
31.93809446691794
 20
13.26381596861718
 30
0.0
 11
31.93809446691795
 21
14.01381596861718
 31
0.0
  0
LINE
  5
8E94
330
1F
100
AcDbEntity
  8
CONTINUOUS1
100
AcDbLine
 10
32.03809446691794
 20
13.26381596861718
 30
0.0
 11
32.03809446691795
 21
14.01381596861718
 31
0.0
  0
LINE
  5
8E95
330
1F
100
AcDbEntity
  8
CONTINUOUS1
100
AcDbLine
 10
32.13809446691795
 20
13.26381596861718
 30
0.0
 11
32.13809446691795
 21
14.01381596861718
 31
0.0
  0
LINE
  5
8E96
330
1F
100
AcDbEntity
  8
CONTINUOUS1
100
AcDbLine
 10
31.03809446691793
 20
13.26381596861719
 30
0.0
 11
31.03809446691793
 21
14.01381596861719
 31
0.0
  0
LINE
  5
8E97
330
1F
100
AcDbEntity
  8
CONTINUOUS1
100
AcDbLine
 10
31.13809446691793
 20
13.26381596861719
 30
0.0
 11
31.13809446691794
 21
14.01381596861719
 31
0.0
  0
LINE
  5
8E98
330
1F
100
AcDbEntity
  8
CONTINUOUS1
100
AcDbLine
 10
31.23809446691793
 20
13.26381596861719
 30
0.0
 11
31.23809446691794
 21
14.01381596861719
 31
0.0
  0
LINE
  5
8E99
330
1F
100
AcDbEntity
  8
CONTINUOUS1
100
AcDbLine
 10
31.33809446691794
 20
13.26381596861719
 30
0.0
 11
31.33809446691794
 21
14.01381596861719
 31
0.0
  0
LINE
  5
8E9A
330
1F
100
AcDbEntity
  8
CONTINUOUS1
100
AcDbLine
 10
31.43809446691793
 20
13.26381596861719
 30
0.0
 11
31.43809446691794
 21
14.01381596861719
 31
0.0
  0
LINE
  5
8E9B
330
1F
100
AcDbEntity
  8
CONTINUOUS1
100
AcDbLine
 10
31.53809446691794
 20
13.26381596861719
 30
0.0
 11
31.53809446691794
 21
14.01381596861719
 31
0.0
  0
LINE
  5
8E9C
330
1F
100
AcDbEntity
  8
CONTINUOUS1
100
AcDbLine
 10
32.23809446691795
 20
13.26381596861718
 30
0.0
 11
32.23809446691795
 21
14.01381596861718
 31
0.0
  0
LWPOLYLINE
  5
8E9D
330
1F
100
AcDbEntity
  8
CONTINUOUS1
100
AcDbPolyline
 90
        5
 70
     0
 43
0.0
 10
30.92809446691794
 20
14.13881596861718
 10
32.33809446691795
 20
14.13881596861718
 10
32.33809446691795
 20
12.45381596861718
 10
31.33809446691795
 20
12.45381596861718
 10
31.33809446691795
 20
13.13881596861718
  0
LINE
  5
8E9E
330
1F
100
AcDbEntity
  8
CONTINUOUS1
100
AcDbLine
 10
30.92809446691794
 20
13.13881596861718
 30
0.0
 11
32.33809446691795
 21
13.13881596861718
 31
0.0
  0
LINE
  5
8E9F
330
1F
100
AcDbEntity
  8
CONTINUOUS1
100
AcDbLine
 10
32.23809446691795
 20
12.35381596861718
 30
0.0
 11
32.23809446691795
 21
12.45381596861718
 31
0.0
  0
LINE
  5
8EA0
330
1F
100
AcDbEntity
  8
CONTINUOUS1
100
AcDbLine
 10
31.43809446691795
 20
12.35381596861718
 30
0.0
 11
31.43809446691795
 21
12.45381596861718
 31
0.0
  0
LINE
  5
8EA1
330
1F
100
AcDbEntity
  8
CONTINUOUS1
100
AcDbLine
 10
30.72809446691794
 20
13.13881596861718
 30
0.0
 11
30.82809446691795
 21
13.13881596861718
 31
0.0
  0
LINE
  5
8EA2
330
1F
100
AcDbEntity
  8
CONTINUOUS1
100
AcDbLine
 10
30.72809446691794
 20
14.13881596861718
 30
0.0
 11
30.82809446691795
 21
14.13881596861718
 31
0.0
  0
DIMENSION
  5
8EA3
330
1F
100
AcDbEntity
  8
DIM
100
AcDbDimension
  2
*D33
 10
29.34809446691795
 20
16.39917082007714
 30
0.0
 11
30.84309446691795
 21
16.39917082007714
 31
0.0
 70
    32
  3
SCHNEIDERELECTRIC
100
AcDbAlignedDimension
 13
32.33809446691795
 23
14.13881596861718
 33
0.0
 14
29.34809446691795
 24
15.58131596861719
 34
0.0
 50
180.0
100
AcDbRotatedDimension
1001
ACAD
1000
DSTYLE
1002
{
1070
    40
1040
2.0
1002
}
  0
DIMENSION
  5
8EBB
330
1F
100
AcDbEntity
  8
DIM
100
AcDbDimension
  2
*D34
 10
28.99614433131031
 20
12.30381596861718
 30
0.0
 11
28.56662052178649
 21
11.78381596861719
 31
0.0
 70
   160
  3
SCHNEIDERELECTRIC
100
AcDbAlignedDimension
 13
29.79809446691795
 23
12.06381596861718
 33
0.0
 14
29.79809446691795
 24
12.30381596861718
 34
0.0
 50
270.0
100
AcDbRotatedDimension
1001
ACAD
1000
DSTYLE
1002
{
1070
    40
1040
2.0
1002
}
  0
LWPOLYLINE
  5
8FB0
330
1F
100
AcDbEntity
  8
CONTINUOUS1
100
AcDbPolyline
 90
        6
 70
     1
 43
0.0
 10
26.10659807528316
 20
12.25381596861718
 10
25.85659807528315
 20
12.15381596861718
 10
25.35659807528316
 20
12.15381596861718
 10
25.10659807528316
 20
12.25381596861718
 10
25.10659807528316
 20
12.35381596861718
 10
26.10659807528316
 20
12.35381596861718
  0
LINE
  5
8FB1
330
1F
100
AcDbEntity
  8
CONTINUOUS1
100
AcDbLine
 10
25.35659807528316
 20
12.35381596861718
 30
0.0
 11
25.35659807528316
 21
12.15381596861718
 31
0.0
  0
LINE
  5
8FB2
330
1F
100
AcDbEntity
  8
CONTINUOUS1
100
AcDbLine
 10
25.20659807528316
 20
12.35381596861718
 30
0.0
 11
25.20659807528316
 21
12.45381596861718
 31
0.0
  0
LINE
  5
8FB3
330
1F
100
AcDbEntity
  8
CONTINUOUS1
100
AcDbLine
 10
25.85659807528315
 20
12.35381596861718
 30
0.0
 11
25.85659807528315
 21
12.15381596861718
 31
0.0
  0
LINE
  5
8FB4
330
1F
100
AcDbEntity
  8
CONTINUOUS1
100
AcDbLine
 10
26.00659807528316
 20
12.35381596861718
 30
0.0
 11
26.00659807528316
 21
12.45381596861718
 31
0.0
  0
LINE
  5
8FB7
330
1F
100
AcDbEntity
  8
CONTINUOUS1
100
AcDbLine
 10
26.10659807528315
 20
13.15221342823873
 30
0.0
 11
26.10659807528316
 21
12.45381596861718
 31
0.0
  0
LINE
  5
8FB8
330
1F
100
AcDbEntity
  8
CONTINUOUS1
100
AcDbLine
 10
26.10659807528316
 20
12.45381596861718
 30
0.0
 11
25.10659807528316
 21
12.45381596861718
 31
0.0
  0
LINE
  5
8FB9
330
1F
100
AcDbEntity
  8
CONTINUOUS1
100
AcDbLine
 10
25.10659807528316
 20
13.15221342823874
 30
0.0
 11
25.10659807528316
 21
12.45381596861718
 31
0.0
  0
LWPOLYLINE
  5
8FC5
330
1F
100
AcDbEntity
  8
CONTINUOUS1
100
AcDbPolyline
 90
        8
 70
     1
 43
0.0
 10
25.05659807528315
 20
14.03881596861718
 42
-0.4142135623730957
 10
25.15659807528316
 20
14.13881596861718
 10
26.05659807528316
 20
14.13881596861718
 42
-0.4142135623730939
 10
26.15659807528316
 20
14.03881596861718
 10
26.15659807528316
 20
13.23881596861718
 42
-0.4142135623730951
 10
26.05659807528316
 20
13.13881596861718
 10
25.15659807528316
 20
13.13881596861718
 42
-0.4142135623730946
 10
25.05659807528315
 20
13.23881596861718
  0
LWPOLYLINE
  5
8FC6
330
1F
100
AcDbEntity
  8
CONTINUOUS1
100
AcDbPolyline
 90
        8
 70
     0
 43
0.0
 10
25.10659807528316
 20
13.04516680130681
 42
-0.3419987131196272
 10
24.95659807528316
 20
13.23881596861718
 10
24.95659807528316
 20
14.03881596861718
 42
-0.4142135623730925
 10
25.15659807528316
 20
14.23881596861718
 10
26.05659807528316
 20
14.23881596861718
 42
-0.4142135623731045
 10
26.25659807528316
 20
14.03881596861718
 10
26.25659807528316
 20
13.23881596861718
 42
-0.3419987131196549
 10
26.10659807528315
 20
13.04516680130681
  0
LINE
  5
8FC7
330
1F
100
AcDbEntity
  8
CONTINUOUS1
100
AcDbLine
 10
25.10659807528316
 20
12.95381596861718
 30
0.0
 11
24.91659807528316
 21
12.95381596861718
 31
0.0
  0
CIRCLE
  5
8FC9
330
1F
100
AcDbEntity
  8
CONTINUOUS1
100
AcDbCircle
 10
25.60659807528316
 20
13.63881596861718
 30
0.0
 40
0.1
  0
LINE
  5
8FCA
330
1F
100
AcDbEntity
  8
0
100
AcDbLine
 10
25.50672315350597
 20
13.63381596861718
 30
0.0
 11
25.70647299706035
 21
13.63381596861717
 31
0.0
  0
LINE
  5
8FCB
330
1F
100
AcDbEntity
  8
0
100
AcDbLine
 10
25.50672315350597
 20
13.64381596861718
 30
0.0
 11
25.70647299706035
 21
13.64381596861717
 31
0.0
  0
LINE
  5
8FCD
330
1F
100
AcDbEntity
  8
HIDDEN1
100
AcDbLine
 10
25.10659807528316
 20
12.32381596861718
 30
0.0
 11
24.77659807528315
 21
12.32381596861718
 31
0.0
  0
LINE
  5
8FCE
330
1F
100
AcDbEntity
  8
CENTER1
100
AcDbLine
 10
25.28159807528314
 20
12.18381596861719
 30
0.0
 11
24.64659807528316
 21
12.18381596861719
 31
0.0
  0
LINE
  5
900D
330
1F
100
AcDbEntity
  8
CONTINUOUS1
100
AcDbLine
 10
0.486399999999999
 20
17.71723816848431
 30
0.0
 11
14.98639999999999
 21
17.71723816848433
 31
0.0
1001
GENIUS_GENOREF_13
1005
0
1005
0
1005
0
1005
0
1005
0
1005
0
1005
0
1005
0
1005
0
1005
0
1005
0
1005
0
1005
0
1005
0
1005
0
  0
TEXT
  5
900E
330
1F
100
AcDbEntity
  8
TEXT1
100
AcDbText
 10
0.5492571428571424
 20
18.83723816848429
 30
0.0
 40
0.16
  1
Type of interlocking
  7
ROMANS
 11
0.5492571428571424
 21
18.91723816848428
 31
0.0
100
AcDbText
 73
     2
  0
TEXT
  5
900F
330
1F
100
AcDbEntity
  8
TEXT1
100
AcDbText
 10
4.550399999999999
 20
18.83723816848429
 30
0.0
 40
0.16
  1
Locking Without Power. Actuating key locks into switch when inserted. This is
  7
ROMANS
 11
4.550399999999999
 21
18.91723816848428
 31
0.0
100
AcDbText
 73
     2
  0
TEXT
  5
9011
330
1F
100
AcDbEntity
  8
TEXT1
100
AcDbText
 10
4.550399999999999
 20
18.51723816848429
 30
0.0
 40
0.16
  1
typically preferred as the door is secured regardless of electrical power 
  7
ROMANS
 11
4.550399999999999
 21
18.59723816848428
 31
0.0
100
AcDbText
 73
     2
  0
TEXT
  5
9012
330
1F
100
AcDbEntity
  8
TEXT1
100
AcDbText
 10
4.550399999999999
 20
18.19723816848429
 30
0.0
 40
0.16
  1
availability or power failure. Applying power to the electromagnet will unlock 
  7
ROMANS
 11
4.550399999999999
 21
18.27723816848429
 31
0.0
100
AcDbText
 73
     2
  0
TEXT
  5
9052
330
1F
100
AcDbEntity
  8
TEXT1
100
AcDbText
 10
4.550399999999999
 20
17.87723816848429
 30
0.0
 40
0.16
  1
actuating key and allow it to be removed from the switch.
  7
ROMANS
 11
4.550399999999999
 21
17.95723816848429
 31
0.0
100
AcDbText
 73
     2
  0
LINE
  5
9053
330
1F
100
AcDbEntity
  8
CONTINUOUS1
100
AcDbLine
 10
4.486400000000001
 20
12.59723816848426
 30
0.0
 11
4.4864
 21
19.63723816848431
 31
0.0
1001
GENIUS_GENOREF_13
1005
0
1005
0
1005
0
1005
0
1005
0
1005
0
1005
0
1005
0
1005
0
1005
0
1005
0
1005
0
1005
0
1005
0
1005
0
  0
TEXT
  5
9055
330
1F
100
AcDbEntity
  8
TEXT1
100
AcDbText
 10
4.5504
 20
14.67723816848427
 30
0.0
 40
0.16
  1
XCSL564B3
  7
ROMANS
 11
4.5504
 21
14.75723816848427
 31
0.0
100
AcDbText
 73
     2
  0
TEXT
  5
9056
330
1F
100
AcDbEntity
  8
TEXT1
100
AcDbText
 10
6.300400000000001
 20
14.67723816848427
 30
0.0
 40
0.16
  1
XCSL564F3
  7
ROMANS
 11
6.300400000000001
 21
14.75723816848427
 31
0.0
100
AcDbText
 73
     2
  0
TEXT
  5
9057
330
1F
100
AcDbEntity
  8
TEXT1
100
AcDbText
 10
8.050399999999999
 20
14.67723816848427
 30
0.0
 40
0.16
  1
XCSL564M3
  7
ROMANS
 11
8.050399999999999
 21
14.75723816848427
 31
0.0
100
AcDbText
 73
     2
  0
TEXT
  5
9059
330
1F
100
AcDbEntity
  8
TEXT1
100
AcDbText
 10
9.800399999999999
 20
14.67723816848427
 30
0.0
 40
0.16
  1
XCSL566B3
  7
ROMANS
 11
9.800399999999999
 21
14.75723816848427
 31
0.0
100
AcDbText
 73
     2
  0
TEXT
  5
905A
330
1F
100
AcDbEntity
  8
TEXT1
100
AcDbText
 10
9.800399999999999
 20
15.47723816848427
 30
0.0
 40
0.16
  1
24 Vdc
 41
0.9
  7
ROMANS
 11
9.800399999999999
 21
15.55723816848427
 31
0.0
100
AcDbText
 73
     2
  0
TEXT
  5
905B
330
1F
100
AcDbEntity
  8
TEXT1
100
AcDbText
 10
13.3004
 20
14.67723816848427
 30
0.0
 40
0.16
  1
XCSL566M3
  7
ROMANS
 11
13.3004
 21
14.75723816848427
 31
0.0
100
AcDbText
 73
     2
  0
TEXT
  5
905C
330
1F
100
AcDbEntity
  8
TEXT1
100
AcDbText
 10
11.5504
 20
14.67723816848427
 30
0.0
 40
0.16
  1
XCSL566F3
  7
ROMANS
 11
11.5504
 21
14.75723816848427
 31
0.0
100
AcDbText
 73
     2
  0
TEXT
  5
905D
330
1F
100
AcDbEntity
  8
TEXT1
100
AcDbText
 10
13.3004
 20
15.47723816848427
 30
0.0
 40
0.16
  1
230 Vac or Vdc
 41
0.75
  7
ROMANS
 11
13.3004
 21
15.55723816848427
 31
0.0
100
AcDbText
 73
     2
  0
TEXT
  5
905E
330
1F
100
AcDbEntity
  8
TEXT1
100
AcDbText
 10
11.5504
 20
15.47723816848427
 30
0.0
 40
0.16
  1
120 Vac or Vdc
 41
0.75
  7
ROMANS
 11
11.5504
 21
15.55723816848427
 31
0.0
100
AcDbText
 73
     2
  0
LINE
  5
905F
330
1F
100
AcDbEntity
  8
CONTINUOUS1
100
AcDbLine
 10
13.2364
 20
12.59723816848426
 30
0.0
 11
13.2364
 21
15.7972381684843
 31
0.0
1001
GENIUS_GENOREF_13
1005
0
1005
0
1005
0
1005
0
1005
0
1005
0
1005
0
1005
0
1005
0
1005
0
1005
0
1005
0
1005
0
1005
0
1005
0
  0
LINE
  5
9060
330
1F
100
AcDbEntity
  8
CONTINUOUS1
100
AcDbLine
 10
13.2364
 20
12.59723816848426
 30
0.0
 11
13.2364
 21
15.7972381684843
 31
0.0
1001
GENIUS_GENOREF_13
1005
0
1005
0
1005
0
1005
0
1005
0
1005
0
1005
0
1005
0
1005
0
1005
0
1005
0
1005
0
1005
0
1005
0
1005
0
  0
LINE
  5
9061
330
1F
100
AcDbEntity
  8
CONTINUOUS1
100
AcDbLine
 10
11.4864
 20
12.59723816848426
 30
0.0
 11
11.4864
 21
15.7972381684843
 31
0.0
1001
GENIUS_GENOREF_13
1005
0
1005
0
1005
0
1005
0
1005
0
1005
0
1005
0
1005
0
1005
0
1005
0
1005
0
1005
0
1005
0
1005
0
1005
0
  0
LINE
  5
9062
330
1F
100
AcDbEntity
  8
CONTINUOUS1
100
AcDbLine
 10
14.9864
 20
12.59723816848426
 30
0.0
 11
14.98639999999999
 21
19.63723816848431
 31
0.0
1001
GENIUS_GENOREF_13
1005
0
1005
0
1005
0
1005
0
1005
0
1005
0
1005
0
1005
0
1005
0
1005
0
1005
0
1005
0
1005
0
1005
0
1005
0
  0
LINE
  5
9063
330
1F
100
AcDbEntity
  8
CONTINUOUS1
100
AcDbLine
 10
14.9864
 20
12.59723816848426
 30
0.0
 11
14.98639999999999
 21
19.63723816848433
 31
0.0
1001
GENIUS_GENOREF_13
1005
0
1005
0
1005
0
1005
0
1005
0
1005
0
1005
0
1005
0
1005
0
1005
0
1005
0
1005
0
1005
0
1005
0
1005
0
  0
LINE
  5
9064
330
1F
100
AcDbEntity
  8
CONTINUOUS1
100
AcDbLine
 10
9.736400000000001
 20
12.59723816848426
 30
0.0
 11
9.736399999999999
 21
17.23723816848432
 31
0.0
1001
GENIUS_GENOREF_13
1005
0
1005
0
1005
0
1005
0
1005
0
1005
0
1005
0
1005
0
1005
0
1005
0
1005
0
1005
0
1005
0
1005
0
1005
0
  0
TEXT
  5
9065
330
1F
100
AcDbEntity
  8
TEXT1
100
AcDbText
 10
4.550400000000005
 20
13.55723816848428
 30
0.0
 40
0.16
  1
XCSL764B3
  7
ROMANS
 11
4.550400000000005
 21
13.63723816848428
 31
0.0
100
AcDbText
 73
     2
  0
TEXT
  5
9066
330
1F
100
AcDbEntity
  8
TEXT1
100
AcDbText
 10
13.3004
 20
13.55723816848428
 30
0.0
 40
0.16
  1
XCSL766M3
  7
ROMANS
 11
13.3004
 21
13.63723816848428
 31
0.0
100
AcDbText
 73
     2
  0
TEXT
  5
9067
330
1F
100
AcDbEntity
  8
TEXT1
100
AcDbText
 10
11.5504
 20
13.55723816848428
 30
0.0
 40
0.16
  1
XCSL766F3
  7
ROMANS
 11
11.5504
 21
13.63723816848428
 31
0.0
100
AcDbText
 73
     2
  0
TEXT
  5
9068
330
1F
100
AcDbEntity
  8
TEXT1
100
AcDbText
 10
9.800400000000003
 20
13.55723816848428
 30
0.0
 40
0.16
  1
XCSL766B3
  7
ROMANS
 11
9.800400000000003
 21
13.63723816848428
 31
0.0
100
AcDbText
 73
     2
  0
TEXT
  5
9069
330
1F
100
AcDbEntity
  8
TEXT1
100
AcDbText
 10
8.050400000000003
 20
13.55723816848428
 30
0.0
 40
0.16
  1
XCSL764M3
  7
ROMANS
 11
8.050400000000003
 21
13.63723816848428
 31
0.0
100
AcDbText
 73
     2
  0
TEXT
  5
906A
330
1F
100
AcDbEntity
  8
TEXT1
100
AcDbText
 10
6.300400000000005
 20
13.55723816848428
 30
0.0
 40
0.16
  1
XCSL764F3
  7
ROMANS
 11
6.300400000000005
 21
13.63723816848428
 31
0.0
100
AcDbText
 73
     2
  0
TEXT
  5
906C
330
1F
100
AcDbEntity
  8
TEXT1
100
AcDbText
 10
4.550400000000005
 20
12.75723816848427
 30
0.0
 40
0.16
  1
32 (.92kg)
  7
ROMANS
 11
4.550400000000005
 21
12.83723816848427
 31
0.0
100
AcDbText
 73
     2
  0
TEXT
  5
9072
330
1F
100
AcDbEntity
  8
TEXT1
100
AcDbText
 10
6.300400000000006
 20
12.75723816848427
 30
0.0
 40
0.16
  1
32 (.92kg)
  7
ROMANS
 11
6.300400000000006
 21
12.83723816848427
 31
0.0
100
AcDbText
 73
     2
  0
TEXT
  5
9073
330
1F
100
AcDbEntity
  8
TEXT1
100
AcDbText
 10
8.050400000000005
 20
12.75723816848427
 30
0.0
 40
0.16
  1
32 (.92kg)
  7
ROMANS
 11
8.050400000000005
 21
12.83723816848427
 31
0.0
100
AcDbText
 73
     2
  0
TEXT
  5
9074
330
1F
100
AcDbEntity
  8
TEXT1
100
AcDbText
 10
9.800400000000005
 20
12.75723816848427
 30
0.0
 40
0.16
  1
32 (.92kg)
  7
ROMANS
 11
9.800400000000005
 21
12.83723816848427
 31
0.0
100
AcDbText
 73
     2
  0
TEXT
  5
9075
330
1F
100
AcDbEntity
  8
TEXT1
100
AcDbText
 10
11.5504
 20
12.75723816848427
 30
0.0
 40
0.16
  1
32 (.92kg)
  7
ROMANS
 11
11.5504
 21
12.83723816848427
 31
0.0
100
AcDbText
 73
     2
  0
TEXT
  5
9076
330
1F
100
AcDbEntity
  8
TEXT1
100
AcDbText
 10
13.3004
 20
12.75723816848427
 30
0.0
 40
0.16
  1
32 (.92kg)
  7
ROMANS
 11
13.3004
 21
12.83723816848427
 31
0.0
100
AcDbText
 73
     2
  0
HATCH
  5
9077
330
1F
100
AcDbEntity
  8
CONTINUOUS1
100
AcDbHatch
 10
0.0
 20
0.0
 30
0.0
210
0.0
220
0.0
230
1.0
  2
SOLID
 70
     1
 71
     1
 91
        1
 92
        1
 93
       10
 72
     1
 10
2.080567195602177
 20
13.34195952803427
 11
2.131312689068644
 21
13.30900501925659
 72
     1
 10
2.131312689068644
 20
13.30900501925659
 11
2.109628896722392
 21
13.25251680893428
 72
     1
 10
2.109628896722392
 20
13.25251680893428
 11
2.156651716905789
 21
13.29059513791459
 72
     1
 10
2.156651716905789
 20
13.29059513791459
 11
2.203674537089187
 21
13.25251680893428
 72
     1
 10
2.203674537089187
 20
13.25251680893428
 11
2.181990744742935
 21
13.30900501925659
 72
     1
 10
2.181990744742935
 20
13.30900501925659
 11
2.232736238209401
 21
13.34195952803427
 72
     1
 10
2.232736238209401
 20
13.34195952803427
 11
2.172312097351024
 21
13.3387928329968
 72
     1
 10
2.172312097351024
 20
13.3387928329968
 11
2.156651716905789
 21
13.39723816848428
 72
     1
 10
2.156651716905789
 20
13.39723816848428
 11
2.140991336460554
 21
13.3387928329968
 72
     1
 10
2.140991336460554
 20
13.3387928329968
 11
2.080567195602177
 21
13.34195952803427
 97
        1
330
9078
 75
     0
 76
     1
 98
        1
 10
1.516346955001028
 20
3.024971501817628
  0
LWPOLYLINE
  5
9078
102
{ACAD_REACTORS
330
9077
102
}
330
1F
100
AcDbEntity
  8
CONTINUOUS1
100
AcDbPolyline
 90
       10
 70
     1
 43
0.0
 10
2.080567195602177
 20
13.34195952803427
 10
2.131312689068644
 20
13.30900501925659
 10
2.109628896722392
 20
13.25251680893428
 10
2.156651716905789
 20
13.29059513791459
 10
2.203674537089187
 20
13.25251680893428
 10
2.181990744742935
 20
13.30900501925659
 10
2.232736238209401
 20
13.34195952803427
 10
2.172312097351024
 20
13.3387928329968
 10
2.156651716905789
 20
13.39723816848428
 10
2.140991336460554
 20
13.3387928329968
  0
LWPOLYLINE
  5
9082
330
1F
100
AcDbEntity
  8
CONTINUOUS1
100
AcDbPolyline
 90
        3
 70
     0
 43
0.0
 10
3.415871356315928
 20
14.06921889608641
 10
3.415871356315928
 20
13.74921889608641
 10
3.527871356315929
 20
13.74921889608641
  0
TEXT
  5
9083
330
1F
100
AcDbEntity
  8
TEXT1
100
AcDbText
 10
3.399871356315927
 20
13.84026651513404
 30
0.0
 40
0.128
  1
21
 50
90.0
  7
ROMANS
 72
     2
 11
3.335871356315927
 21
14.02921889608642
 31
0.0
100
AcDbText
 73
     2
  0
LWPOLYLINE
  5
9084
330
1F
100
AcDbEntity
  8
CONTINUOUS1
100
AcDbPolyline
 90
        3
 70
     0
 43
0.0
 10
3.415871356315928
 20
13.19209076687539
 10
3.415871356315928
 20
13.4720907668754
 10
3.498693450748736
 20
13.7811870312879
  0
TEXT
  5
9085
330
1F
100
AcDbEntity
  8
TEXT1
100
AcDbText
 10
3.399871356315928
 20
13.19209076687539
 30
0.0
 40
0.128
  1
22
 50
90.0
  7
ROMANS
 11
3.335871356315928
 21
13.19209076687539
 31
0.0
100
AcDbText
 73
     2
  0
LINE
  5
9086
330
1F
100
AcDbEntity
  8
HIDDEN1
100
AcDbLine
 10
3.452999485526949
 20
14.73065483148092
 30
0.0
 11
4.235768260793068
 21
14.73065483148092
 31
0.0
  0
TEXT
  5
9087
330
1F
100
AcDbEntity
  8
TEXT1
100
AcDbText
 10
3.399871356315926
 20
14.96026651513405
 30
0.0
 40
0.128
  1
21
 50
90.0
  7
ROMANS
 72
     2
 11
3.335871356315926
 21
15.14921889608643
 31
0.0
100
AcDbText
 73
     2
  0
LWPOLYLINE
  5
9088
330
1F
100
AcDbEntity
  8
CONTINUOUS1
100
AcDbPolyline
 90
        3
 70
     0
 43
0.0
 10
3.415871356315927
 20
15.18921889608642
 10
3.415871356315927
 20
14.86921889608642
 10
3.527871356315928
 20
14.86921889608642
  0
LWPOLYLINE
  5
9089
330
1F
100
AcDbEntity
  8
CONTINUOUS1
100
AcDbPolyline
 90
        3
 70
     0
 43
0.0
 10
3.415871356315927
 20
14.3120907668754
 10
3.415871356315927
 20
14.59209076687541
 10
3.498693450748735
 20
14.9011870312879
  0
TEXT
  5
908A
330
1F
100
AcDbEntity
  8
TEXT1
100
AcDbText
 10
3.399871356315927
 20
14.3120907668754
 30
0.0
 40
0.128
  1
22
 50
90.0
  7
ROMANS
 11
3.335871356315927
 21
14.3120907668754
 31
0.0
100
AcDbText
 73
     2
  0
LINE
  5
908D
330
1F
100
AcDbEntity
  8
CONTINUOUS1
100
AcDbLine
 10
4.272896390004087
 20
14.90118703128791
 30
0.0
 11
4.272896390004089
 21
15.18921889608642
 31
0.0
  0
TEXT
  5
908E
330
1F
100
AcDbEntity
  8
TEXT1
100
AcDbText
 10
4.256896390004088
 20
14.92369508656262
 30
0.0
 40
0.128
  1
33
 50
90.0
  7
ROMANS
 72
     2
 11
4.192896390004088
 21
15.14921889608643
 31
0.0
100
AcDbText
 73
     2
  0
LWPOLYLINE
  5
908F
330
1F
100
AcDbEntity
  8
CONTINUOUS1
100
AcDbPolyline
 90
        4
 70
     0
 43
0.0
 10
4.272896390004089
 20
14.3120907668754
 10
4.272896390004089
 20
14.59209076687541
 10
4.190074295571281
 20
14.9011870312879
 10
4.112800229468156
 20
14.8804815076797
  0
TEXT
  5
9090
330
1F
100
AcDbEntity
  8
TEXT1
100
AcDbText
 10
4.256896390004088
 20
14.3120907668754
 30
0.0
 40
0.128
  1
34
 50
90.0
  7
ROMANS
 11
4.192896390004088
 21
14.3120907668754
 31
0.0
100
AcDbText
 73
     2
  0
LWPOLYLINE
  5
9093
330
1F
100
AcDbEntity
  8
CONTINUOUS1
100
AcDbPolyline
 90
        4
 70
     0
 43
0.0
 10
3.844383873160008
 20
14.3120907668754
 10
3.844383873160008
 20
14.59209076687541
 10
3.7615617787272
 20
14.9011870312879
 10
3.684287712624075
 20
14.8804815076797
  0
TEXT
  5
9094
330
1F
100
AcDbEntity
  8
TEXT1
100
AcDbText
 10
3.828383873160007
 20
14.3120907668754
 30
0.0
 40
0.128
  1
14
 50
90.0
  7
ROMANS
 11
3.764383873160007
 21
14.3120907668754
 31
0.0
100
AcDbText
 73
     2
  0
TEXT
  5
9095
330
1F
100
AcDbEntity
  8
TEXT1
100
AcDbText
 10
3.828383873160007
 20
14.92369508656262
 30
0.0
 40
0.128
  1
13
 50
90.0
  7
ROMANS
 72
     2
 11
3.764383873160007
 21
15.14921889608643
 31
0.0
100
AcDbText
 73
     2
  0
LINE
  5
9096
330
1F
100
AcDbEntity
  8
CONTINUOUS1
100
AcDbLine
 10
3.844383873160007
 20
14.90118703128791
 30
0.0
 11
3.844383873160008
 21
15.18921889608642
 31
0.0
  0
LINE
  5
9244
330
1F
100
AcDbEntity
  8
CONTINUOUS1
100
AcDbLine
 10
0.4864000000000009
 20
15.79723816848428
 30
0.0
 11
14.9864
 21
15.79723816848431
 31
0.0
1001
GENIUS_GENOREF_13
1005
0
1005
0
1005
0
1005
0
1005
0
1005
0
1005
0
1005
0
1005
0
1005
0
1005
0
1005
0
1005
0
1005
0
1005
0
  0
LINE
  5
9245
330
1F
100
AcDbEntity
  8
CONTINUOUS1
100
AcDbLine
 10
0.4864000000000008
 20
16.27723816848429
 30
0.0
 11
14.9864
 21
16.27723816848431
 31
0.0
1001
GENIUS_GENOREF_13
1005
0
1005
0
1005
0
1005
0
1005
0
1005
0
1005
0
1005
0
1005
0
1005
0
1005
0
1005
0
1005
0
1005
0
1005
0
  0
LINE
  5
9246
330
1F
100
AcDbEntity
  8
CONTINUOUS1
100
AcDbLine
 10
0.4864000000000008
 20
16.7572381684843
 30
0.0
 11
14.9864
 21
16.75723816848432
 31
0.0
1001
GENIUS_GENOREF_13
1005
0
1005
0
1005
0
1005
0
1005
0
1005
0
1005
0
1005
0
1005
0
1005
0
1005
0
1005
0
1005
0
1005
0
1005
0
  0
LINE
  5
9247
330
1F
100
AcDbEntity
  8
CONTINUOUS1
100
AcDbLine
 10
0.4864000000000007
 20
17.2372381684843
 30
0.0
 11
14.9864
 21
17.23723816848433
 31
0.0
1001
GENIUS_GENOREF_13
1005
0
1005
0
1005
0
1005
0
1005
0
1005
0
1005
0
1005
0
1005
0
1005
0
1005
0
1005
0
1005
0
1005
0
1005
0
  0
TEXT
  5
9248
330
1F
100
AcDbEntity
  8
TEXT1
100
AcDbText
 10
0.5492571428571436
 20
17.39723816848431
 30
0.0
 40
0.16
  1
LED indication
 41
0.9
  7
ROMANS
 11
0.5492571428571436
 21
17.47723816848431
 31
0.0
100
AcDbText
 73
     2
  0
TEXT
  5
9249
330
1F
100
AcDbEntity
  8
TEXT1
100
AcDbText
 10
4.5504
 20
17.39723816848431
 30
0.0
 40
0.16
  1
Orange LED:"guard open" signaling
 41
0.9
  7
ROMANS
 11
4.5504
 21
17.47723816848431
 31
0.0
100
AcDbText
 73
     2
  0
TEXT
  5
924B
330
1F
100
AcDbEntity
  8
TEXT1
100
AcDbText
 10
0.5492571428571446
 20
15.95723816848429
 30
0.0
 40
0.16
  1
Position of Ronis key release lock
 41
0.85
  7
ROMANS
 11
0.5492571428571446
 21
16.03723816848429
 31
0.0
100
AcDbText
 73
     2
  0
TEXT
  5
924C
330
1F
100
AcDbEntity
  8
TEXT1
100
AcDbText
 10
4.550400000000002
 20
15.95723816848429
 30
0.0
 40
0.16
  1
Front
 41
0.9
  7
ROMANS
 11
4.550400000000002
 21
16.03723816848429
 31
0.0
100
AcDbText
 73
     2
  0
TEXT
  5
924D
330
1F
100
AcDbEntity
  8
TEXT1
100
AcDbText
 10
9.800400000000001
 20
15.95723816848429
 30
0.0
 40
0.16
  1
Front
 41
0.9
  7
ROMANS
 11
9.800400000000001
 21
16.03723816848429
 31
0.0
100
AcDbText
 73
     2
  0
TEXT
  5
924E
330
1F
100
AcDbEntity
  8
TEXT1
100
AcDbText
 10
0.5492571428571446
 20
16.4372381684843
 30
0.0
 40
0.16
  1
Position of Electromagnet Connector
 41
0.85
  7
ROMANS
 11
0.5492571428571446
 21
16.5172381684843
 31
0.0
100
AcDbText
 73
     2
  0
TEXT
  5
924F
330
1F
100
AcDbEntity
  8
TEXT1
100
AcDbText
 10
4.550400000000002
 20
16.4372381684843
 30
0.0
 40
0.16
  1
To Left
 41
0.9
  7
ROMANS
 11
4.550400000000002
 21
16.5172381684843
 31
0.0
100
AcDbText
 73
     2
  0
TEXT
  5
9250
330
1F
100
AcDbEntity
  8
TEXT1
100
AcDbText
 10
9.800400000000001
 20
16.4372381684843
 30
0.0
 40
0.16
  1
To Right
 41
0.9
  7
ROMANS
 11
9.800400000000001
 21
16.5172381684843
 31
0.0
100
AcDbText
 73
     2
  0
TEXT
  5
9251
330
1F
100
AcDbEntity
  8
TEXT1
100
AcDbText
 10
0.5492571428571446
 20
16.91723816848431
 30
0.0
 40
0.16
  1
Position of Head (for actuating key)
 41
0.85
  7
ROMANS
 11
0.5492571428571446
 21
16.99723816848431
 31
0.0
100
AcDbText
 73
     2
  0
TEXT
  5
9252
330
1F
100
AcDbEntity
  8
TEXT1
100
AcDbText
 10
4.550400000000002
 20
16.91723816848431
 30
0.0
 40
0.16
  1
To Right
 41
0.9
  7
ROMANS
 11
4.550400000000002
 21
16.99723816848431
 31
0.0
100
AcDbText
 73
     2
  0
TEXT
  5
9253
330
1F
100
AcDbEntity
  8
TEXT1
100
AcDbText
 10
9.800400000000001
 20
16.91723816848431
 30
0.0
 40
0.16
  1
To Left
 41
0.9
  7
ROMANS
 11
9.800400000000001
 21
16.99723816848431
 31
0.0
100
AcDbText
 73
     2
  0
LINE
  5
9254
330
1F
100
AcDbEntity
  8
CONTINUOUS1
100
AcDbLine
 10
0.6965714285714278
 20
4.688881616355654
 30
0.0
 11
0.6965714285714278
 21
4.798881616355654
 31
0.0
  0
LINE
  5
9256
330
1F
100
AcDbEntity
  8
CONTINUOUS1
100
AcDbLine
 10
0.6465714285714271
 20
4.768881616355653
 30
0.0
 11
0.7465714285714267
 21
4.768881616355653
 31
0.0
  0
CIRCLE
  5
9257
102
{ACAD_REACTORS
330
9259
102
}
330
1F
100
AcDbEntity
  8
CONTINUOUS1
100
AcDbCircle
 10
0.6965714285714278
 20
3.41054828302232
 30
0.0
 40
0.06
  0
HATCH
  5
9259
330
1F
100
AcDbEntity
  8
CONTINUOUS1
100
AcDbHatch
 10
0.0
 20
0.0
 30
0.0
210
0.0
220
0.0
230
1.0
  2
SOLID
 70
     1
 71
     1
 91
        1
 92
        1
 93
        1
 72
     2
 10
0.6965714285714278
 20
3.41054828302232
 40
0.06
 50
0.0
 51
360.0
 73
     1
 97
        1
330
9257
 75
     0
 76
     1
 98
        1
 10
0.0
 20
-1.717666094249672
  0
HATCH
  5
92C9
330
1F
100
AcDbEntity
  8
CONTINUOUS1
100
AcDbHatch
 10
0.0
 20
0.0
 30
0.0
210
0.0
220
0.0
230
1.0
  2
SOLID
 70
     1
 71
     1
 91
        1
 92
        1
 93
        1
 72
     2
 10
9.623032604811402
 20
19.39723816848431
 40
0.06
 50
0.0
 51
360.0
 73
     1
 97
        1
330
92CA
 75
     0
 76
     1
 98
        1
 10
8.926461176239975
 20
14.26902379121232
  0
CIRCLE
  5
92CA
102
{ACAD_REACTORS
330
92C9
102
}
330
1F
100
AcDbEntity
  8
CONTINUOUS1
100
AcDbCircle
 10
9.623032604811402
 20
19.39723816848431
 30
0.0
 40
0.06
  0
LINE
  5
92CB
330
1F
100
AcDbEntity
  8
CONTINUOUS1
100
AcDbLine
 10
7.846213857887606
 20
15.58223816848427
 30
0.0
 11
7.946213857887606
 21
15.58223816848427
 31
0.0
  0
LINE
  5
92CC
330
1F
100
AcDbEntity
  8
CONTINUOUS1
100
AcDbLine
 10
7.896213857887607
 20
15.50223816848427
 30
0.0
 11
7.896213857887607
 21
15.61223816848428
 31
0.0
  0
LINE
  5
92CF
330
1F
100
AcDbEntity
  8
CONTINUOUS1
100
AcDbLine
 10
9.596213857887605
 20
15.58223816848427
 30
0.0
 11
9.696213857887604
 21
15.58223816848427
 31
0.0
  0
LINE
  5
92D0
330
1F
100
AcDbEntity
  8
CONTINUOUS1
100
AcDbLine
 10
9.646213857887605
 20
15.50223816848427
 30
0.0
 11
9.646213857887605
 21
15.61223816848427
 31
0.0
  0
LINE
  5
92D1
330
1F
100
AcDbEntity
  8
CONTINUOUS1
100
AcDbLine
 10
13.0962138578876
 20
15.58223816848427
 30
0.0
 11
13.1962138578876
 21
15.58223816848427
 31
0.0
  0
LINE
  5
92D2
330
1F
100
AcDbEntity
  8
CONTINUOUS1
100
AcDbLine
 10
13.1462138578876
 20
15.50223816848427
 30
0.0
 11
13.1462138578876
 21
15.61223816848428
 31
0.0
  0
LINE
  5
92D3
330
1F
100
AcDbEntity
  8
CONTINUOUS1
100
AcDbLine
 10
14.8462138578876
 20
15.58223816848427
 30
0.0
 11
14.9462138578876
 21
15.58223816848427
 31
0.0
  0
LINE
  5
92D4
330
1F
100
AcDbEntity
  8
CONTINUOUS1
100
AcDbLine
 10
14.8962138578876
 20
15.50223816848427
 30
0.0
 11
14.8962138578876
 21
15.61223816848427
 31
0.0
  0
TEXT
  5
92D5
330
1F
100
AcDbEntity
  8
TEXT1
100
AcDbText
 10
4.550399999999998
 20
9.800036719280191
 30
0.0
 40
0.16
  1
Orange LED:"guard open" signaling
 41
0.9
  7
ROMANS
 11
4.550399999999998
 21
9.880036719280191
 31
0.0
100
AcDbText
 73
     2
  0
TEXT
  5
92D6
330
1F
100
AcDbEntity
  8
TEXT1
100
AcDbText
 10
4.550399999999998
 20
10.28003671928017
 30
0.0
 40
0.16
  1
electromagnet will unlock actuating key and allow it to be removed from the switch.
 41
0.95
  7
ROMANS
 11
4.550399999999998
 21
10.36003671928017
 31
0.0
100
AcDbText
 73
     2
  0
TEXT
  5
92D7
330
1F
100
AcDbEntity
  8
TEXT1
100
AcDbText
 10
4.550399999999998
 20
10.60003671928016
 30
0.0
 40
0.16
  1
failure or when power is removed from the electromagnet. Removing power from the 
 41
0.95
  7
ROMANS
 11
4.550399999999998
 21
10.68003671928016
 31
0.0
100
AcDbText
 73
     2
  0
LINE
  5
92D8
330
1F
100
AcDbEntity
  8
CONTINUOUS1
100
AcDbLine
 10
0.4863999999999998
 20
9.640036719280182
 30
0.0
 11
14.9864
 21
9.640036719280207
 31
0.0
1001
GENIUS_GENOREF_13
1005
0
1005
0
1005
0
1005
0
1005
0
1005
0
1005
0
1005
0
1005
0
1005
0
1005
0
1005
0
1005
0
1005
0
1005
0
  0
LINE
  5
92D9
330
1F
100
AcDbEntity
  8
CONTINUOUS1
100
AcDbLine
 10
0.4863999999999998
 20
9.160036719280174
 30
0.0
 11
14.9864
 21
9.160036719280199
 31
0.0
1001
GENIUS_GENOREF_13
1005
0
1005
0
1005
0
1005
0
1005
0
1005
0
1005
0
1005
0
1005
0
1005
0
1005
0
1005
0
1005
0
1005
0
1005
0
  0
LINE
  5
92DA
330
1F
100
AcDbEntity
  8
CONTINUOUS1
100
AcDbLine
 10
0.4863999999999998
 20
8.680036719280167
 30
0.0
 11
14.9864
 21
8.680036719280192
 31
0.0
1001
GENIUS_GENOREF_13
1005
0
1005
0
1005
0
1005
0
1005
0
1005
0
1005
0
1005
0
1005
0
1005
0
1005
0
1005
0
1005
0
1005
0
1005
0
  0
LINE
  5
92DB
330
1F
100
AcDbEntity
  8
CONTINUOUS1
100
AcDbLine
 10
0.4863999999999998
 20
7.720036719280152
 30
0.0
 11
14.9864
 21
7.720036719280145
 31
0.0
1001
GENIUS_GENOREF_13
1005
0
1005
0
1005
0
1005
0
1005
0
1005
0
1005
0
1005
0
1005
0
1005
0
1005
0
1005
0
1005
0
1005
0
1005
0
  0
LINE
  5
92DC
330
1F
100
AcDbEntity
  8
CONTINUOUS1
100
AcDbLine
 10
0.4863999999999998
 20
6.600036719280154
 30
0.0
 11
14.9864
 21
6.600036719280151
 31
0.0
1001
GENIUS_GENOREF_13
1005
0
1005
0
1005
0
1005
0
1005
0
1005
0
1005
0
1005
0
1005
0
1005
0
1005
0
1005
0
1005
0
1005
0
1005
0
  0
LINE
  5
92DD
330
1F
100
AcDbEntity
  8
CONTINUOUS1
100
AcDbLine
 10
0.4863999999999998
 20
5.48003671928015
 30
0.0
 11
14.9864
 21
5.480036719280146
 31
0.0
1001
GENIUS_GENOREF_13
1005
0
1005
0
1005
0
1005
0
1005
0
1005
0
1005
0
1005
0
1005
0
1005
0
1005
0
1005
0
1005
0
1005
0
1005
0
  0
LINE
  5
92DE
330
1F
100
AcDbEntity
  8
CONTINUOUS1
100
AcDbLine
 10
0.486399999999998
 20
5.000036719280142
 30
0.0
 11
14.9864
 21
5.000036719280139
 31
0.0
1001
GENIUS_GENOREF_13
1005
0
1005
0
1005
0
1005
0
1005
0
1005
0
1005
0
1005
0
1005
0
1005
0
1005
0
1005
0
1005
0
1005
0
1005
0
  0
LINE
  5
92DF
330
1F
100
AcDbEntity
  8
CONTINUOUS1
100
AcDbLine
 10
0.4863999999999998
 20
8.200036719280159
 30
0.0
 11
14.9864
 21
8.200036719280184
 31
0.0
1001
GENIUS_GENOREF_13
1005
0
1005
0
1005
0
1005
0
1005
0
1005
0
1005
0
1005
0
1005
0
1005
0
1005
0
1005
0
1005
0
1005
0
1005
0
  0
TEXT
  5
92E0
330
1F
100
AcDbEntity
  8
TEXT1
100
AcDbText
 10
4.550399999999998
 20
10.92003671928016
 30
0.0
 40
0.16
  1
applied to the electromagnet. Door or guard is not locked in the event of a power 
 41
0.95
  7
ROMANS
 11
4.550399999999998
 21
11.00003671928016
 31
0.0
100
AcDbText
 73
     2
  0
TEXT
  5
92E1
330
1F
100
AcDbEntity
  8
TEXT1
100
AcDbText
 10
4.550399999999998
 20
11.24003671928016
 30
0.0
 40
0.16
  1
Locking With Power. Actuating key locks into switch %%Uonly%%U when inserted and power is 
 41
0.95
  7
ROMANS
 11
4.550399999999998
 21
11.32003671928016
 31
0.0
100
AcDbText
 73
     2
  0
LINE
  5
92E2
330
1F
100
AcDbEntity
  8
CONTINUOUS1
100
AcDbLine
 10
0.486399999999998
 20
10.12003671928018
 30
0.0
 11
14.98639999999999
 21
10.12003671928021
 31
0.0
1001
GENIUS_GENOREF_13
1005
0
1005
0
1005
0
1005
0
1005
0
1005
0
1005
0
1005
0
1005
0
1005
0
1005
0
1005
0
1005
0
1005
0
1005
0
  0
TEXT
  5
92E3
330
1F
100
AcDbEntity
  8
TEXT1
100
AcDbText
 10
4.550399999999998
 20
11.72003671928018
 30
0.0
 40
0.16
  1
With interlocking, locking electromagnet
  7
ROMANS
 11
4.550399999999998
 21
11.80003671928018
 31
0.0
100
AcDbText
 73
     2
  0
TEXT
  5
92E4
330
1F
100
AcDbEntity
  8
TEXT2
100
AcDbText
 10
0.486399999999998
 20
12.17639855079586
 30
0.0
 40
0.16
  1
Metal, type XCSL, Conduit entry tapped 1/2 NPT - Locking with power
  7
ROMANS
 11
0.486399999999998
 21
12.25639855079586
 31
0.0
100
AcDbText
 73
     2
  0
LINE
  5
92E5
330
1F
100
AcDbEntity
  8
CONTINUOUS1
100
AcDbLine
 10
0.486399999999998
 20
11.56003671928018
 30
0.0
 11
14.9864
 21
11.56003671928017
 31
0.0
1001
GENIUS_GENOREF_13
1005
0
1005
0
1005
0
1005
0
1005
0
1005
0
1005
0
1005
0
1005
0
1005
0
1005
0
1005
0
1005
0
1005
0
1005
0
  0
LINE
  5
92E6
330
1F
100
AcDbEntity
  8
CONTINUOUS1
100
AcDbLine
 10
0.486399999999998
 20
12.04003671928019
 30
0.0
 11
14.9864
 21
12.04003671928021
 31
0.0
1001
GENIUS_GENOREF_13
1005
0
1005
0
1005
0
1005
0
1005
0
1005
0
1005
0
1005
0
1005
0
1005
0
1005
0
1005
0
1005
0
1005
0
1005
0
  0
LINE
  5
92E7
330
1F
100
AcDbEntity
  8
CONTINUOUS1
100
AcDbLine
 10
4.486399999999999
 20
5.00003671928014
 30
0.0
 11
4.486399999999997
 21
12.04003671928019
 31
0.0
1001
GENIUS_GENOREF_13
1005
0
1005
0
1005
0
1005
0
1005
0
1005
0
1005
0
1005
0
1005
0
1005
0
1005
0
1005
0
1005
0
1005
0
1005
0
  0
LINE
  5
92E8
330
1F
100
AcDbEntity
  8
CONTINUOUS1
100
AcDbLine
 10
0.4863999999999998
 20
5.00003671928014
 30
0.0
 11
0.486399999999998
 21
12.04003671928019
 31
0.0
1001
GENIUS_GENOREF_13
1005
0
1005
0
1005
0
1005
0
1005
0
1005
0
1005
0
1005
0
1005
0
1005
0
1005
0
1005
0
1005
0
1005
0
1005
0
  0
TEXT
  5
92E9
330
1F
100
AcDbEntity
  8
TEXT1
100
AcDbText
 10
0.549257142857142
 20
8.840036719280176
 30
0.0
 40
0.16
  1
Position of Electromagnet Connector
 41
0.85
  7
ROMANS
 11
0.549257142857142
 21
8.920036719280176
 31
0.0
100
AcDbText
 73
     2
  0
TEXT
  5
92EA
330
1F
100
AcDbEntity
  8
TEXT1
100
AcDbText
 10
0.549257142857142
 20
8.360036719280172
 30
0.0
 40
0.16
  1
Position of Ronis key release lock
 41
0.85
  7
ROMANS
 11
0.549257142857142
 21
8.440036719280172
 31
0.0
100
AcDbText
 73
     2
  0
TEXT
  5
92EB
330
1F
100
AcDbEntity
  8
TEXT1
100
AcDbText
 10
0.549257142857142
 20
7.880036719280154
 30
0.0
 40
0.16
  1
Supply voltage of electromagnet
 41
0.9
  7
ROMANS
 11
0.549257142857142
 21
7.960036719280154
 31
0.0
100
AcDbText
 73
     2
  0
TEXT
  5
92EC
330
1F
100
AcDbEntity
  8
TEXT1
100
AcDbText
 10
0.549257142857142
 20
7.080036719280156
 30
0.0
 40
0.16
  1
(2 N.O. staggered)
  7
ROMANS
 11
0.549257142857142
 21
7.160036719280157
 31
0.0
100
AcDbText
 73
     2
  0
TEXT
  5
92ED
330
1F
100
AcDbEntity
  8
TEXT1
100
AcDbText
 10
0.549257142857142
 20
6.760036719280156
 30
0.0
 40
0.16
  1
slow break
  7
ROMANS
 11
0.549257142857142
 21
6.840036719280156
 31
0.0
100
AcDbText
 73
     2
  0
TEXT
  5
92EE
330
1F
100
AcDbEntity
  8
TEXT1
100
AcDbText
 10
0.549257142857142
 20
5.640036719280152
 30
0.0
 40
0.16
  1
slow break
  7
ROMANS
 11
0.549257142857142
 21
5.720036719280152
 31
0.0
100
AcDbText
 73
     2
  0
TEXT
  5
92EF
330
1F
100
AcDbEntity
  8
TEXT1
100
AcDbText
 10
0.549257142857142
 20
5.96003671928015
 30
0.0
 40
0.16
  1
(N.O. staggered)
  7
ROMANS
 11
0.549257142857142
 21
6.04003671928015
 31
0.0
100
AcDbText
 73
     2
  0
TEXT
  5
92F0
330
1F
100
AcDbEntity
  8
TEXT1
100
AcDbText
 10
0.549257142857142
 20
6.280036719280149
 30
0.0
 40
0.16
  1
N.C.+N.C.+N.O.
  7
ROMANS
 11
0.549257142857142
 21
6.360036719280149
 31
0.0
100
AcDbText
 73
     2
  0
TEXT
  5
92F1
330
1F
100
AcDbEntity
  8
TEXT1
100
AcDbText
 10
0.549257142857142
 20
5.160036719280144
 30
0.0
 40
0.16
  1
Weight (oz.)
  7
ROMANS
 11
0.549257142857142
 21
5.240036719280144
 31
0.0
100
AcDbText
 73
     2
  0
TEXT
  5
92F2
330
1F
100
AcDbEntity
  8
TEXT1
100
AcDbText
 10
0.549257142857142
 20
7.400036719280153
 30
0.0
 40
0.16
  1
N.C.+N.O.+N.O.
  7
ROMANS
 11
0.549257142857142
 21
7.480036719280153
 31
0.0
100
AcDbText
 73
     2
  0
LWPOLYLINE
  5
92F3
330
1F
100
AcDbEntity
  8
CONTINUOUS1
100
AcDbPolyline
 90
        3
 70
     0
 43
0.0
 10
3.415871356315927
 20
5.594889317671274
 10
3.415871356315927
 20
5.874889317671275
 10
3.498693450748735
 20
6.183985582083774
  0
LWPOLYLINE
  5
92F4
330
1F
100
AcDbEntity
  8
CONTINUOUS1
100
AcDbPolyline
 90
        3
 70
     0
 43
0.0
 10
3.844383873160007
 20
5.594889317671274
 10
3.844383873160007
 20
5.874889317671275
 10
3.927205967592815
 20
6.183985582083774
  0
LWPOLYLINE
  5
92F5
330
1F
100
AcDbEntity
  8
CONTINUOUS1
100
AcDbPolyline
 90
        4
 70
     0
 43
0.0
 10
4.272896390004088
 20
5.594889317671274
 10
4.272896390004088
 20
5.874889317671275
 10
4.19007429557128
 20
6.183985582083774
 10
4.112800229468155
 20
6.163280058475574
  0
LINE
  5
92F6
330
1F
100
AcDbEntity
  8
CONTINUOUS1
100
AcDbLine
 10
1.93749049461971
 20
5.740036719280151
 30
0.0
 11
2.01749049461971
 21
5.740036719280151
 31
0.0
  0
LINE
  5
92F7
330
1F
100
AcDbEntity
  8
CONTINUOUS1
100
AcDbLine
 10
1.93749049461971
 20
5.700036719280154
 30
0.0
 11
2.01749049461971
 21
5.700036719280154
 31
0.0
  0
LINE
  5
92F8
330
1F
100
AcDbEntity
  8
CONTINUOUS1
100
AcDbLine
 10
1.97749049461971
 20
5.676036719280153
 30
0.0
 11
1.97749049461971
 21
5.764036719280152
 31
0.0
  0
LWPOLYLINE
  5
92F9
102
{ACAD_REACTORS
330
92FA
102
}
330
1F
100
AcDbEntity
  8
CONTINUOUS1
100
AcDbPolyline
 90
       10
 70
     1
 43
0.0
 10
2.080567195602176
 20
5.744758078830146
 10
2.131312689068642
 20
5.711803570052472
 10
2.10962889672239
 20
5.655315359730154
 10
2.156651716905787
 20
5.69339368871047
 10
2.203674537089185
 20
5.655315359730154
 10
2.181990744742933
 20
5.711803570052472
 10
2.232736238209399
 20
5.744758078830146
 10
2.172312097351023
 20
5.741591383792679
 10
2.156651716905787
 20
5.800036719280155
 10
2.140991336460552
 20
5.741591383792679
  0
HATCH
  5
92FA
330
1F
100
AcDbEntity
  8
CONTINUOUS1
100
AcDbHatch
 10
0.0
 20
0.0
 30
0.0
210
0.0
220
0.0
230
1.0
  2
SOLID
 70
     1
 71
     1
 91
        1
 92
        1
 93
       10
 72
     1
 10
2.080567195602176
 20
5.744758078830146
 11
2.131312689068642
 21
5.711803570052472
 72
     1
 10
2.131312689068642
 20
5.711803570052472
 11
2.10962889672239
 21
5.655315359730154
 72
     1
 10
2.10962889672239
 20
5.655315359730154
 11
2.156651716905787
 21
5.69339368871047
 72
     1
 10
2.156651716905787
 20
5.69339368871047
 11
2.203674537089185
 21
5.655315359730154
 72
     1
 10
2.203674537089185
 20
5.655315359730154
 11
2.181990744742933
 21
5.711803570052472
 72
     1
 10
2.181990744742933
 20
5.711803570052472
 11
2.232736238209399
 21
5.744758078830146
 72
     1
 10
2.232736238209399
 20
5.744758078830146
 11
2.172312097351023
 21
5.741591383792679
 72
     1
 10
2.172312097351023
 20
5.741591383792679
 11
2.156651716905787
 21
5.800036719280155
 72
     1
 10
2.156651716905787
 20
5.800036719280155
 11
2.140991336460552
 21
5.741591383792679
 72
     1
 10
2.140991336460552
 20
5.741591383792679
 11
2.080567195602176
 21
5.744758078830146
 97
        1
330
92F9
 75
     0
 76
     1
 98
        1
 10
1.516346955001026
 20
-4.572229947386496
  0
TEXT
  5
92FB
330
1F
100
AcDbEntity
  8
TEXT1
100
AcDbText
 10
3.399871356315927
 20
5.594889317671274
 30
0.0
 40
0.128
  1
22
 50
90.0
  7
ROMANS
 11
3.335871356315927
 21
5.594889317671274
 31
0.0
100
AcDbText
 73
     2
  0
TEXT
  5
92FC
330
1F
100
AcDbEntity
  8
TEXT1
100
AcDbText
 10
4.550400000000003
 20
5.160036719280146
 30
0.0
 40
0.16
  1
32 (.92kg)
  7
ROMANS
 11
4.550400000000003
 21
5.240036719280146
 31
0.0
100
AcDbText
 73
     2
  0
TEXT
  5
92FD
330
1F
100
AcDbEntity
  8
TEXT1
100
AcDbText
 10
4.256896390004088
 20
5.594889317671274
 30
0.0
 40
0.128
  1
14
 50
90.0
  7
ROMANS
 11
4.192896390004088
 21
5.594889317671274
 31
0.0
100
AcDbText
 73
     2
  0
TEXT
  5
92FE
330
1F
100
AcDbEntity
  8
TEXT1
100
AcDbText
 10
3.828383873160007
 20
5.594889317671274
 30
0.0
 40
0.128
  1
32
 50
90.0
  7
ROMANS
 11
3.764383873160006
 21
5.594889317671274
 31
0.0
100
AcDbText
 73
     2
  0
LINE
  5
92FF
330
1F
100
AcDbEntity
  8
HIDDEN1
100
AcDbLine
 10
3.452999485526946
 20
7.133453382276794
 30
0.0
 11
4.235768260793067
 21
7.133453382276794
 31
0.0
  0
LINE
  5
9300
330
1F
100
AcDbEntity
  8
HIDDEN1
100
AcDbLine
 10
3.452999485526948
 20
6.013453382276786
 30
0.0
 11
4.235768260793067
 21
6.013453382276786
 31
0.0
  0
LWPOLYLINE
  5
9301
330
1F
100
AcDbEntity
  8
CONTINUOUS1
100
AcDbPolyline
 90
        3
 70
     0
 43
0.0
 10
3.415871356315926
 20
7.592017446882298
 10
3.415871356315926
 20
7.272017446882298
 10
3.527871356315926
 20
7.272017446882298
  0
TEXT
  5
9302
330
1F
100
AcDbEntity
  8
TEXT1
100
AcDbText
 10
3.399871356315925
 20
7.363065065929925
 30
0.0
 40
0.128
  1
21
 50
90.0
  7
ROMANS
 72
     2
 11
3.335871356315925
 21
7.552017446882306
 31
0.0
100
AcDbText
 73
     2
  0
LINE
  5
9303
330
1F
100
AcDbEntity
  8
CONTINUOUS1
100
AcDbLine
 10
1.93749049461971
 20
6.820036719280157
 30
0.0
 11
2.01749049461971
 21
6.820036719280157
 31
0.0
  0
LINE
  5
9304
330
1F
100
AcDbEntity
  8
CONTINUOUS1
100
AcDbLine
 10
1.93749049461971
 20
6.860036719280156
 30
0.0
 11
2.01749049461971
 21
6.860036719280156
 31
0.0
  0
LINE
  5
9305
330
1F
100
AcDbEntity
  8
CONTINUOUS1
100
AcDbLine
 10
1.97749049461971
 20
6.796036719280156
 30
0.0
 11
1.97749049461971
 21
6.884036719280157
 31
0.0
  0
HATCH
  5
9306
330
1F
100
AcDbEntity
  8
CONTINUOUS1
100
AcDbHatch
 10
0.0
 20
0.0
 30
0.0
210
0.0
220
0.0
230
1.0
  2
SOLID
 70
     1
 71
     1
 91
        1
 92
        1
 93
       10
 72
     1
 10
2.080567195602176
 20
6.864758078830149
 11
2.131312689068642
 21
6.831803570052475
 72
     1
 10
2.131312689068642
 20
6.831803570052475
 11
2.10962889672239
 21
6.775315359730157
 72
     1
 10
2.10962889672239
 20
6.775315359730157
 11
2.156651716905787
 21
6.813393688710473
 72
     1
 10
2.156651716905787
 20
6.813393688710473
 11
2.203674537089185
 21
6.775315359730157
 72
     1
 10
2.203674537089185
 20
6.775315359730157
 11
2.181990744742933
 21
6.831803570052475
 72
     1
 10
2.181990744742933
 20
6.831803570052475
 11
2.232736238209399
 21
6.864758078830149
 72
     1
 10
2.232736238209399
 20
6.864758078830149
 11
2.172312097351023
 21
6.861591383792681
 72
     1
 10
2.172312097351023
 20
6.861591383792681
 11
2.156651716905787
 21
6.920036719280158
 72
     1
 10
2.156651716905787
 20
6.920036719280158
 11
2.140991336460552
 21
6.861591383792681
 72
     1
 10
2.140991336460552
 20
6.861591383792681
 11
2.080567195602176
 21
6.864758078830149
 97
        1
330
9307
 75
     0
 76
     1
 98
        1
 10
1.516346955001026
 20
-3.452229947386493
  0
LWPOLYLINE
  5
9307
102
{ACAD_REACTORS
330
9306
102
}
330
1F
100
AcDbEntity
  8
CONTINUOUS1
100
AcDbPolyline
 90
       10
 70
     1
 43
0.0
 10
2.080567195602176
 20
6.864758078830149
 10
2.131312689068642
 20
6.831803570052475
 10
2.10962889672239
 20
6.775315359730157
 10
2.156651716905787
 20
6.813393688710473
 10
2.203674537089185
 20
6.775315359730157
 10
2.181990744742933
 20
6.831803570052475
 10
2.232736238209399
 20
6.864758078830149
 10
2.172312097351023
 20
6.861591383792681
 10
2.156651716905787
 20
6.920036719280158
 10
2.140991336460552
 20
6.861591383792681
  0
LWPOLYLINE
  5
9308
330
1F
100
AcDbEntity
  8
CONTINUOUS1
100
AcDbPolyline
 90
        3
 70
     0
 43
0.0
 10
3.415871356315927
 20
6.472017446882293
 10
3.415871356315927
 20
6.152017446882293
 10
3.527871356315927
 20
6.152017446882293
  0
TEXT
  5
9309
330
1F
100
AcDbEntity
  8
TEXT1
100
AcDbText
 10
3.399871356315925
 20
6.243065065929917
 30
0.0
 40
0.128
  1
21
 50
90.0
  7
ROMANS
 72
     2
 11
3.335871356315925
 21
6.432017446882298
 31
0.0
100
AcDbText
 73
     2
  0
LWPOLYLINE
  5
930A
330
1F
100
AcDbEntity
  8
CONTINUOUS1
100
AcDbPolyline
 90
        3
 70
     0
 43
0.0
 10
3.415871356315926
 20
6.714889317671282
 10
3.415871356315926
 20
6.994889317671283
 10
3.498693450748734
 20
7.303985582083779
  0
TEXT
  5
930B
330
1F
100
AcDbEntity
  8
TEXT1
100
AcDbText
 10
3.399871356315925
 20
6.714889317671282
 30
0.0
 40
0.128
  1
22
 50
90.0
  7
ROMANS
 11
3.335871356315925
 21
6.714889317671282
 31
0.0
100
AcDbText
 73
     2
  0
LINE
  5
930C
330
1F
100
AcDbEntity
  8
CONTINUOUS1
100
AcDbLine
 10
4.272896390004087
 20
7.303985582083786
 30
0.0
 11
4.272896390004087
 21
7.592017446882298
 31
0.0
  0
LINE
  5
930D
330
1F
100
AcDbEntity
  8
CONTINUOUS1
100
AcDbLine
 10
3.844383873160005
 20
7.303985582083786
 30
0.0
 11
3.844383873160007
 21
7.592017446882298
 31
0.0
  0
TEXT
  5
930E
330
1F
100
AcDbEntity
  8
TEXT1
100
AcDbText
 10
3.828383873160005
 20
7.326493637358496
 30
0.0
 40
0.128
  1
13
 50
90.0
  7
ROMANS
 72
     2
 11
3.764383873160005
 21
7.552017446882306
 31
0.0
100
AcDbText
 73
     2
  0
TEXT
  5
930F
330
1F
100
AcDbEntity
  8
TEXT1
100
AcDbText
 10
4.256896390004087
 20
7.326493637358496
 30
0.0
 40
0.128
  1
33
 50
90.0
  7
ROMANS
 72
     2
 11
4.192896390004086
 21
7.552017446882306
 31
0.0
100
AcDbText
 73
     2
  0
TEXT
  5
9310
330
1F
100
AcDbEntity
  8
TEXT1
100
AcDbText
 10
4.550399999999998
 20
7.080036719280153
 30
0.0
 40
0.16
  1
XCSL584B3
  7
ROMANS
 11
4.550399999999998
 21
7.160036719280153
 31
0.0
100
AcDbText
 73
     2
  0
TEXT
  5
9311
330
1F
100
AcDbEntity
  8
TEXT1
100
AcDbText
 10
4.550400000000003
 20
5.960036719280159
 30
0.0
 40
0.16
  1
XCSL784B3
  7
ROMANS
 11
4.550400000000003
 21
6.040036719280159
 31
0.0
100
AcDbText
 73
     2
  0
TEXT
  5
9312
330
1F
100
AcDbEntity
  8
TEXT1
100
AcDbText
 10
4.256896390004088
 20
6.206493637358488
 30
0.0
 40
0.128
  1
13
 50
90.0
  7
ROMANS
 72
     2
 11
4.192896390004088
 21
6.432017446882298
 31
0.0
100
AcDbText
 73
     2
  0
LWPOLYLINE
  5
9313
330
1F
100
AcDbEntity
  8
CONTINUOUS1
100
AcDbPolyline
 90
        3
 70
     0
 43
0.0
 10
3.844383873160007
 20
6.472017446882293
 10
3.844383873160007
 20
6.152017446882293
 10
3.956383873160008
 20
6.152017446882293
  0
TEXT
  5
9314
330
1F
100
AcDbEntity
  8
TEXT1
100
AcDbText
 10
3.828383873160005
 20
6.243065065929917
 30
0.0
 40
0.128
  1
31
 50
90.0
  7
ROMANS
 72
     2
 11
3.764383873160005
 21
6.432017446882298
 31
0.0
100
AcDbText
 73
     2
  0
LINE
  5
9315
330
1F
100
AcDbEntity
  8
CONTINUOUS1
100
AcDbLine
 10
4.272896390004087
 20
6.183985582083778
 30
0.0
 11
4.272896390004088
 21
6.472017446882293
 31
0.0
  0
LWPOLYLINE
  5
9316
330
1F
100
AcDbEntity
  8
CONTINUOUS1
100
AcDbPolyline
 90
        4
 70
     0
 43
0.0
 10
4.272896390004087
 20
6.714889317671282
 10
4.272896390004087
 20
6.994889317671283
 10
4.190074295571279
 20
7.303985582083779
 10
4.112800229468154
 20
7.283280058475579
  0
TEXT
  5
9317
330
1F
100
AcDbEntity
  8
TEXT1
100
AcDbText
 10
4.256896390004087
 20
6.714889317671282
 30
0.0
 40
0.128
  1
34
 50
90.0
  7
ROMANS
 11
4.192896390004086
 21
6.714889317671282
 31
0.0
100
AcDbText
 73
     2
  0
LWPOLYLINE
  5
9318
330
1F
100
AcDbEntity
  8
CONTINUOUS1
100
AcDbPolyline
 90
        4
 70
     0
 43
0.0
 10
3.844383873160007
 20
6.714889317671282
 10
3.844383873160007
 20
6.994889317671283
 10
3.761561778727198
 20
7.303985582083779
 10
3.684287712624073
 20
7.283280058475579
  0
TEXT
  5
9319
330
1F
100
AcDbEntity
  8
TEXT1
100
AcDbText
 10
3.828383873160005
 20
6.714889317671282
 30
0.0
 40
0.128
  1
14
 50
90.0
  7
ROMANS
 11
3.764383873160005
 21
6.714889317671282
 31
0.0
100
AcDbText
 73
     2
  0
TEXT
  5
931A
330
1F
100
AcDbEntity
  8
TEXT1
100
AcDbText
 10
4.550400000000001
 20
8.840036719280176
 30
0.0
 40
0.16
  1
To Left
 41
0.9
  7
ROMANS
 11
4.550400000000001
 21
8.920036719280176
 31
0.0
100
AcDbText
 73
     2
  0
TEXT
  5
931B
330
1F
100
AcDbEntity
  8
TEXT1
100
AcDbText
 10
4.550400000000001
 20
8.360036719280172
 30
0.0
 40
0.16
  1
Front
 41
0.9
  7
ROMANS
 11
4.550400000000001
 21
8.440036719280172
 31
0.0
100
AcDbText
 73
     2
  0
TEXT
  5
931C
330
1F
100
AcDbEntity
  8
TEXT1
100
AcDbText
 10
4.550399999999998
 20
7.880036719280154
 30
0.0
 40
0.16
  1
24 Vdc
 41
0.9
  7
ROMANS
 11
4.550399999999998
 21
7.960036719280154
 31
0.0
100
AcDbText
 73
     2
  0
TEXT
  5
931D
330
1F
100
AcDbEntity
  8
TEXT1
100
AcDbText
 10
0.549257142857142
 20
9.800036719280191
 30
0.0
 40
0.16
  1
LED indication
 41
0.9
  7
ROMANS
 11
0.549257142857142
 21
9.880036719280191
 31
0.0
100
AcDbText
 73
     2
  0
TEXT
  5
931E
330
1F
100
AcDbEntity
  8
TEXT1
100
AcDbText
 10
0.549257142857142
 20
9.320036719280187
 30
0.0
 40
0.16
  1
Position of Head (for actuating key)
 41
0.85
  7
ROMANS
 11
0.549257142857142
 21
9.400036719280187
 31
0.0
100
AcDbText
 73
     2
  0
TEXT
  5
931F
330
1F
100
AcDbEntity
  8
TEXT1
100
AcDbText
 10
0.5492571428571403
 20
11.24003671928016
 30
0.0
 40
0.16
  1
Type of interlocking
  7
ROMANS
 11
0.5492571428571403
 21
11.32003671928016
 31
0.0
100
AcDbText
 73
     2
  0
TEXT
  5
9320
330
1F
100
AcDbEntity
  8
TEXT1
100
AcDbText
 10
0.5492571428571403
 20
11.72003671928018
 30
0.0
 40
0.16
  1
Type of switch
  7
ROMANS
 11
0.5492571428571403
 21
11.80003671928018
 31
0.0
100
AcDbText
 73
     2
  0
TEXT
  5
9321
330
1F
100
AcDbEntity
  8
TEXT1
100
AcDbText
 10
4.550400000000001
 20
9.320036719280187
 30
0.0
 40
0.16
  1
To Right
 41
0.9
  7
ROMANS
 11
4.550400000000001
 21
9.400036719280187
 31
0.0
100
AcDbText
 73
     2
  0
LINE
  5
9322
330
1F
100
AcDbEntity
  8
CONTINUOUS1
100
AcDbLine
 10
9.736399999999999
 20
5.000036719280139
 30
0.0
 11
9.736399999999997
 21
9.640036719280196
 31
0.0
1001
GENIUS_GENOREF_13
1005
0
1005
0
1005
0
1005
0
1005
0
1005
0
1005
0
1005
0
1005
0
1005
0
1005
0
1005
0
1005
0
1005
0
1005
0
  0
LINE
  5
9323
330
1F
100
AcDbEntity
  8
CONTINUOUS1
100
AcDbLine
 10
14.9864
 20
5.00003671928014
 30
0.0
 11
14.98639999999999
 21
12.0400367192802
 31
0.0
1001
GENIUS_GENOREF_13
1005
0
1005
0
1005
0
1005
0
1005
0
1005
0
1005
0
1005
0
1005
0
1005
0
1005
0
1005
0
1005
0
1005
0
1005
0
  0
LINE
  5
9324
330
1F
100
AcDbEntity
  8
CONTINUOUS1
100
AcDbLine
 10
14.9864
 20
5.00003671928014
 30
0.0
 11
14.98639999999999
 21
12.04003671928019
 31
0.0
1001
GENIUS_GENOREF_13
1005
0
1005
0
1005
0
1005
0
1005
0
1005
0
1005
0
1005
0
1005
0
1005
0
1005
0
1005
0
1005
0
1005
0
1005
0
  0
LINE
  5
9325
330
1F
100
AcDbEntity
  8
CONTINUOUS1
100
AcDbLine
 10
7.986399999999999
 20
5.00003671928014
 30
0.0
 11
7.9864
 21
8.200036719280172
 31
0.0
1001
GENIUS_GENOREF_13
1005
0
1005
0
1005
0
1005
0
1005
0
1005
0
1005
0
1005
0
1005
0
1005
0
1005
0
1005
0
1005
0
1005
0
1005
0
  0
LINE
  5
9326
330
1F
100
AcDbEntity
  8
CONTINUOUS1
100
AcDbLine
 10
7.986399999999999
 20
5.00003671928014
 30
0.0
 11
7.986399999999999
 21
8.200036719280172
 31
0.0
1001
GENIUS_GENOREF_13
1005
0
1005
0
1005
0
1005
0
1005
0
1005
0
1005
0
1005
0
1005
0
1005
0
1005
0
1005
0
1005
0
1005
0
1005
0
  0
LINE
  5
9327
330
1F
100
AcDbEntity
  8
CONTINUOUS1
100
AcDbLine
 10
6.236400000000001
 20
5.000036719280142
 30
0.0
 11
6.236399999999999
 21
8.200036719280166
 31
0.0
1001
GENIUS_GENOREF_13
1005
0
1005
0
1005
0
1005
0
1005
0
1005
0
1005
0
1005
0
1005
0
1005
0
1005
0
1005
0
1005
0
1005
0
1005
0
  0
TEXT
  5
9328
330
1F
100
AcDbEntity
  8
TEXT1
100
AcDbText
 10
8.050400000000003
 20
5.160036719280146
 30
0.0
 40
0.16
  1
32 (.92kg)
  7
ROMANS
 11
8.050400000000003
 21
5.240036719280146
 31
0.0
100
AcDbText
 73
     2
  0
TEXT
  5
9329
330
1F
100
AcDbEntity
  8
TEXT1
100
AcDbText
 10
6.300400000000005
 20
5.160036719280148
 30
0.0
 40
0.16
  1
32 (.92kg)
  7
ROMANS
 11
6.300400000000005
 21
5.240036719280148
 31
0.0
100
AcDbText
 73
     2
  0
TEXT
  5
932A
330
1F
100
AcDbEntity
  8
TEXT1
100
AcDbText
 10
9.800400000000003
 20
5.160036719280146
 30
0.0
 40
0.16
  1
32 (.92kg)
  7
ROMANS
 11
9.800400000000003
 21
5.240036719280146
 31
0.0
100
AcDbText
 73
     2
  0
TEXT
  5
932B
330
1F
100
AcDbEntity
  8
TEXT1
100
AcDbText
 10
8.050399999999998
 20
7.88003671928015
 30
0.0
 40
0.16
  1
230 Vac or Vdc
 41
0.75
  7
ROMANS
 11
8.050399999999998
 21
7.96003671928015
 31
0.0
100
AcDbText
 73
     2
  0
TEXT
  5
932C
330
1F
100
AcDbEntity
  8
TEXT1
100
AcDbText
 10
8.050399999999998
 20
7.080036719280153
 30
0.0
 40
0.16
  1
XCSL584M3
  7
ROMANS
 11
8.050399999999998
 21
7.160036719280153
 31
0.0
100
AcDbText
 73
     2
  0
TEXT
  5
932D
330
1F
100
AcDbEntity
  8
TEXT1
100
AcDbText
 10
8.050400000000001
 20
5.960036719280159
 30
0.0
 40
0.16
  1
XCSL784M3
  7
ROMANS
 11
8.050400000000001
 21
6.040036719280159
 31
0.0
100
AcDbText
 73
     2
  0
TEXT
  5
932E
330
1F
100
AcDbEntity
  8
TEXT1
100
AcDbText
 10
6.300399999999999
 20
7.080036719280153
 30
0.0
 40
0.16
  1
XCSL584F3
  7
ROMANS
 11
6.300399999999999
 21
7.160036719280153
 31
0.0
100
AcDbText
 73
     2
  0
TEXT
  5
932F
330
1F
100
AcDbEntity
  8
TEXT1
100
AcDbText
 10
6.300400000000003
 20
5.960036719280159
 30
0.0
 40
0.16
  1
XCSL784F3
  7
ROMANS
 11
6.300400000000003
 21
6.040036719280159
 31
0.0
100
AcDbText
 73
     2
  0
TEXT
  5
9330
330
1F
100
AcDbEntity
  8
TEXT1
100
AcDbText
 10
6.300399999999999
 20
7.880036719280154
 30
0.0
 40
0.16
  1
120 Vac or Vdc
 41
0.75
  7
ROMANS
 11
6.300399999999999
 21
7.960036719280154
 31
0.0
100
AcDbText
 73
     2
  0
LINE
  5
9331
330
1F
100
AcDbEntity
  8
CONTINUOUS1
100
AcDbLine
 10
7.846213857887605
 20
7.985036719280152
 30
0.0
 11
7.946213857887604
 21
7.985036719280152
 31
0.0
  0
LINE
  5
9332
330
1F
100
AcDbEntity
  8
CONTINUOUS1
100
AcDbLine
 10
7.896213857887605
 20
7.905036719280154
 30
0.0
 11
7.896213857887605
 21
8.015036719280153
 31
0.0
  0
TEXT
  5
9333
330
1F
100
AcDbEntity
  8
TEXT1
100
AcDbText
 10
9.800399999999998
 20
7.080036719280153
 30
0.0
 40
0.16
  1
XCSL586B3
  7
ROMANS
 11
9.800399999999998
 21
7.160036719280153
 31
0.0
100
AcDbText
 73
     2
  0
TEXT
  5
9334
330
1F
100
AcDbEntity
  8
TEXT1
100
AcDbText
 10
9.800400000000001
 20
5.960036719280159
 30
0.0
 40
0.16
  1
XCSL786B3
  7
ROMANS
 11
9.800400000000001
 21
6.040036719280159
 31
0.0
100
AcDbText
 73
     2
  0
TEXT
  5
9335
330
1F
100
AcDbEntity
  8
TEXT1
100
AcDbText
 10
9.800399999999999
 20
8.840036719280176
 30
0.0
 40
0.16
  1
To Right
 41
0.9
  7
ROMANS
 11
9.800399999999999
 21
8.920036719280176
 31
0.0
100
AcDbText
 73
     2
  0
TEXT
  5
9336
330
1F
100
AcDbEntity
  8
TEXT1
100
AcDbText
 10
9.800399999999999
 20
8.360036719280172
 30
0.0
 40
0.16
  1
Front
 41
0.9
  7
ROMANS
 11
9.800399999999999
 21
8.440036719280172
 31
0.0
100
AcDbText
 73
     2
  0
TEXT
  5
9337
330
1F
100
AcDbEntity
  8
TEXT1
100
AcDbText
 10
9.800399999999998
 20
7.880036719280154
 30
0.0
 40
0.16
  1
24 Vdc
 41
0.9
  7
ROMANS
 11
9.800399999999998
 21
7.960036719280154
 31
0.0
100
AcDbText
 73
     2
  0
LINE
  5
9338
330
1F
100
AcDbEntity
  8
CONTINUOUS1
100
AcDbLine
 10
9.596213857887603
 20
7.985036719280149
 30
0.0
 11
9.696213857887602
 21
7.985036719280149
 31
0.0
  0
LINE
  5
9339
330
1F
100
AcDbEntity
  8
CONTINUOUS1
100
AcDbLine
 10
9.646213857887603
 20
7.90503671928015
 30
0.0
 11
9.646213857887603
 21
8.01503671928015
 31
0.0
  0
LINE
  5
933A
330
1F
100
AcDbEntity
  8
CONTINUOUS1
100
AcDbLine
 10
13.2364
 20
5.00003671928014
 30
0.0
 11
13.2364
 21
8.200036719280182
 31
0.0
1001
GENIUS_GENOREF_13
1005
0
1005
0
1005
0
1005
0
1005
0
1005
0
1005
0
1005
0
1005
0
1005
0
1005
0
1005
0
1005
0
1005
0
1005
0
  0
LINE
  5
933B
330
1F
100
AcDbEntity
  8
CONTINUOUS1
100
AcDbLine
 10
13.2364
 20
5.00003671928014
 30
0.0
 11
13.2364
 21
8.200036719280182
 31
0.0
1001
GENIUS_GENOREF_13
1005
0
1005
0
1005
0
1005
0
1005
0
1005
0
1005
0
1005
0
1005
0
1005
0
1005
0
1005
0
1005
0
1005
0
1005
0
  0
LINE
  5
933C
330
1F
100
AcDbEntity
  8
CONTINUOUS1
100
AcDbLine
 10
11.4864
 20
5.000036719280142
 30
0.0
 11
11.4864
 21
8.200036719280175
 31
0.0
1001
GENIUS_GENOREF_13
1005
0
1005
0
1005
0
1005
0
1005
0
1005
0
1005
0
1005
0
1005
0
1005
0
1005
0
1005
0
1005
0
1005
0
1005
0
  0
TEXT
  5
933D
330
1F
100
AcDbEntity
  8
TEXT1
100
AcDbText
 10
13.3004
 20
5.160036719280144
 30
0.0
 40
0.16
  1
32 (.92kg)
  7
ROMANS
 11
13.3004
 21
5.240036719280144
 31
0.0
100
AcDbText
 73
     2
  0
TEXT
  5
933E
330
1F
100
AcDbEntity
  8
TEXT1
100
AcDbText
 10
11.5504
 20
5.160036719280144
 30
0.0
 40
0.16
  1
32 (.92kg)
  7
ROMANS
 11
11.5504
 21
5.240036719280144
 31
0.0
100
AcDbText
 73
     2
  0
TEXT
  5
933F
330
1F
100
AcDbEntity
  8
TEXT1
100
AcDbText
 10
13.30039999999999
 20
7.88003671928015
 30
0.0
 40
0.16
  1
230 Vac or Vdc
 41
0.75
  7
ROMANS
 11
13.30039999999999
 21
7.96003671928015
 31
0.0
100
AcDbText
 73
     2
  0
TEXT
  5
9340
330
1F
100
AcDbEntity
  8
TEXT1
100
AcDbText
 10
13.30039999999999
 20
7.080036719280153
 30
0.0
 40
0.16
  1
XCSL586M3
  7
ROMANS
 11
13.30039999999999
 21
7.160036719280153
 31
0.0
100
AcDbText
 73
     2
  0
TEXT
  5
9341
330
1F
100
AcDbEntity
  8
TEXT1
100
AcDbText
 10
13.3004
 20
5.960036719280159
 30
0.0
 40
0.16
  1
XCSL786M3
  7
ROMANS
 11
13.3004
 21
6.040036719280159
 31
0.0
100
AcDbText
 73
     2
  0
TEXT
  5
9342
330
1F
100
AcDbEntity
  8
TEXT1
100
AcDbText
 10
11.55039999999999
 20
7.080036719280153
 30
0.0
 40
0.16
  1
XCSL586F3
  7
ROMANS
 11
11.55039999999999
 21
7.160036719280153
 31
0.0
100
AcDbText
 73
     2
  0
TEXT
  5
9343
330
1F
100
AcDbEntity
  8
TEXT1
100
AcDbText
 10
11.5504
 20
5.960036719280159
 30
0.0
 40
0.16
  1
XCSL786F3
  7
ROMANS
 11
11.5504
 21
6.040036719280159
 31
0.0
100
AcDbText
 73
     2
  0
TEXT
  5
9344
330
1F
100
AcDbEntity
  8
TEXT1
100
AcDbText
 10
11.55039999999999
 20
7.880036719280154
 30
0.0
 40
0.16
  1
120 Vac or Vdc
 41
0.75
  7
ROMANS
 11
11.55039999999999
 21
7.960036719280154
 31
0.0
100
AcDbText
 73
     2
  0
LINE
  5
9345
330
1F
100
AcDbEntity
  8
CONTINUOUS1
100
AcDbLine
 10
13.1462138578876
 20
7.905036719280154
 30
0.0
 11
13.1462138578876
 21
8.015036719280153
 31
0.0
  0
LINE
  5
9346
330
1F
100
AcDbEntity
  8
CONTINUOUS1
100
AcDbLine
 10
13.0962138578876
 20
7.985036719280152
 30
0.0
 11
13.1962138578876
 21
7.985036719280152
 31
0.0
  0
LINE
  5
9347
330
1F
100
AcDbEntity
  8
CONTINUOUS1
100
AcDbLine
 10
14.8962138578876
 20
7.90503671928015
 30
0.0
 11
14.8962138578876
 21
8.01503671928015
 31
0.0
  0
LINE
  5
9348
330
1F
100
AcDbEntity
  8
CONTINUOUS1
100
AcDbLine
 10
14.8462138578876
 20
7.985036719280149
 30
0.0
 11
14.9462138578876
 21
7.985036719280149
 31
0.0
  0
TEXT
  5
9349
330
1F
100
AcDbEntity
  8
TEXT1
100
AcDbText
 10
9.800399999999999
 20
9.320036719280187
 30
0.0
 40
0.16
  1
To Left
 41
0.9
  7
ROMANS
 11
9.800399999999999
 21
9.400036719280187
 31
0.0
100
AcDbText
 73
     2
  0
HATCH
  5
934A
330
1F
100
AcDbEntity
  8
CONTINUOUS1
100
AcDbHatch
 10
0.0
 20
0.0
 30
0.0
210
0.0
220
0.0
230
1.0
  2
SOLID
 70
     1
 71
     1
 91
        1
 92
        1
 93
        1
 72
     2
 10
9.623032604811401
 20
11.80003671928018
 40
0.06
 50
0.0
 51
360.0
 73
     1
 97
        1
330
934B
 75
     0
 76
     1
 98
        1
 10
8.926461176239973
 20
6.671822342008194
  0
CIRCLE
  5
934B
102
{ACAD_REACTORS
330
934A
102
}
330
1F
100
AcDbEntity
  8
CONTINUOUS1
100
AcDbCircle
 10
9.623032604811401
 20
11.80003671928018
 30
0.0
 40
0.06
  0
VIEWPORT
  5
32
330
1B
100
AcDbEntity
 67
     1
  8
0
100
AcDbViewport
 10
8.197700928165525
 20
5.469890120772165
 30
0.0
 40
18.67335969917398
 41
11.91231567016271
 68
     1
 69
     1
1001
ACAD
1000
MVIEW
1002
{
1070
    16
1010
0.0
1020
0.0
1030
0.0
1010
0.0
1020
0.0
1030
1.0
1040
0.0
1040
11.91231567016271
1040
8.197700928165525
1040
5.469890120772165
1040
50.0
1040
0.0
1040
0.0
1070
     0
1070
   100
1070
     1
1070
     0
1070
     0
1070
     0
1070
     0
1070
     0
1040
0.0
1040
0.0
1040
0.0
1040
0.5
1040
0.5
1040
0.5
1040
0.5
1070
     0
1002
{
1002
}
1002
}
1001
GENIUS_GENOREF_13
1005
0
1005
0
1001
GENIUS_GENSCREG_15
1000
PF
1040
1.0
1000
DF
1040
1.0
1000
MIN
1011
-0.9868069047050553
1021
-0.4873716604564838
1031
0.0
1000
MAX
1011
17.59819885323597
1021
10.63627855607077
1031
0.0
1000
FLAGS
1070
     2
  0
LWPOLYLINE
  5
175
330
1B
100
AcDbEntity
 67
     1
  8
VIEWPORT
100
AcDbPolyline
 90
        6
 70
     1
 43
0.0
 10
16.40000099999999
 20
10.25
 10
16.40000099999999
 20
0.9120019999999993
 10
8.002461
 20
0.9120019999999993
 10
8.002461
 20
0.0
 10
0.0
 20
0.0
 10
0.0
 20
10.25
1001
GENIUS_GENOREF_13
1005
0
1005
0
1005
0
1005
0
1005
0
1005
0
1005
0
1005
0
1005
0
1005
0
1005
0
1005
0
1005
0
1005
0
1005
0
  0
VIEWPORT
  5
177
330
1B
100
AcDbEntity
 67
     1
  8
VIEWPORT
100
AcDbViewport
 10
8.200000499999999
 20
5.125
 30
0.0
 40
16.40000099999999
 41
10.25
 68
     2
 69
     2
1001
ACAD
1000
MVIEW
1002
{
1070
    16
1010
0.0
1020
0.0
1030
0.0
1010
0.0
1020
0.0
1030
1.0
1040
0.0
1040
20.5
1040
16.40025372037712
1040
10.25000014319957
1040
50.0
1040
0.0
1040
0.0
1070
     0
1070
   100
1070
     1
1070
     2
1070
     0
1070
     0
1070
     0
1070
     0
1040
0.0
1040
0.0
1040
0.0
1040
0.5
1040
0.5
1040
0.5
1040
0.5
1070
     0
1002
{
1002
}
1002
}
1001
GENIUS_GENOREF_13
1005
0
1005
0
1005
0
1005
0
1005
0
1005
0
1005
0
1005
0
1005
0
1005
0
1005
0
1005
0
1005
0
1005
0
1005
0
1001
GENIUS_GENSCREG_15
1000
PF
1040
0.0
1000
DF
1040
0.0
1000
MIN
1011
0.0
1021
0.0
1031
0.0
1000
MAX
1011
16.40000099999999
1021
10.25
1031
0.0
1000
FLAGS
1070
     2
  0
INSERT
  5
B2C
330
1B
100
AcDbEntity
 67
     1
  8
TITLEBLOCK
100
AcDbBlockReference
 66
     1
  2
TITLE-PAD
 10
0.0
 20
0.0
 30
0.0
  0
ATTRIB
  5
B2D
330
B2C
100
AcDbEntity
 67
     1
  8
TEXT1
 62
     0
100
AcDbText
 10
8.751838348937988
 20
0.6974460884590165
 30
0.0
 40
0.1
  1
XCSL SAFETY INTERLOCK SWITCHES
  7
ROMANS
 72
     4
 11
10.10183834893798
 21
0.7474460884590166
 31
0.0
100
AcDbAttribute
  2
DESCRIPTION 1
 70
     0
  0
ATTRIB
  5
B2E
330
B2C
100
AcDbEntity
 67
     1
  8
TEXT1
 62
     0
100
AcDbText
 10
8.160885967985606
 20
0.5693422187597193
 30
0.0
 40
0.08
  1
XCSL564B3, XCSL564F3, XCSL564M3, XCSL566M3, XCSL566F3
  7
ROMANS
 72
     4
 11
10.10183834893798
 21
0.6017231711406717
 31
0.0
100
AcDbAttribute
  2
DESCRIPTION 2
 70
     0
  0
ATTRIB
  5
B2F
330
B2C
100
AcDbEntity
 67
     1
  8
TEXT1
 62
     0
100
AcDbText
 10
8.155171682271321
 20
0.4236193014413744
 30
0.0
 40
0.08
  1
XCSL566M3, XCSL764B3, XCSL764F3, XCSL764M3, XCSL766B3
  7
ROMANS
 72
     4
 11
10.10183834893798
 21
0.4560002538223267
 31
0.0
100
AcDbAttribute
  2
DESCRIPTION 3
 70
     0
  0
ATTRIB
  5
B30
330
B2C
100
AcDbEntity
 67
     1
  8
TEXT1
 62
     0
100
AcDbText
 10
8.160885967985606
 20
0.2878963841230309
 30
0.0
 40
0.08
  1
XCSL766F3, XCSL766M3, XCSL584B3, XCSL584F3, XCSL584M3
  7
ROMANS
 72
     4
 11
10.10183834893798
 21
0.3202773365039833
 31
0.0
100
AcDbAttribute
  2
DESCRIPTION 4
 70
     0
  0
ATTRIB
  5
B31
330
B2C
100
AcDbEntity
 67
     1
  8
TEXT1
 62
     0
100
AcDbText
 10
8.166600253699893
 20
0.1521734668046875
 30
0.0
 40
0.08
  1
XCSL586B3, XCSL586F3, XCSL586M3, XCSL784B3, XCSL784F3
  7
ROMANS
 72
     4
 11
10.10183834893798
 21
0.1845544191856399
 31
0.0
100
AcDbAttribute
  2
DESCRIPTION 5
 70
     0
  0
ATTRIB
  5
B32
330
B2C
100
AcDbEntity
 67
     1
  8
TEXT1
 62
     0
100
AcDbText
 10
12.74772367103195
 20
0.096540546036505
 30
0.0
 40
0.12
  1
XCSL_OUTLINE_001
 41
0.9512024731840066
  7
M_STANDARD
 11
12.74772367103195
 21
0.156540546036505
 31
0.0
100
AcDbAttribute
  2
DWGNO
 70
     0
 74
     2
  0
ATTRIB
  5
B33
330
B2C
100
AcDbEntity
 67
     1
  8
TEXT1
 62
     0
100
AcDbText
 10
16.35506454949325
 20
-0.1507193079929352
 30
0.0
 40
0.08
  1

  7
ROMANS
 72
     2
 11
16.35506454949325
 21
-0.1107193079929352
 31
0.0
100
AcDbAttribute
  2
REF
 70
     0
 74
     2
  0
ATTRIB
  5
B34
330
B2C
100
AcDbEntity
 67
     1
  8
TEXT1
 62
     0
100
AcDbText
 10
0.0266402374038712
 20
-0.1507193079929352
 30
0.0
 40
0.08
  1
MAY 2001
  7
ROMANS
 11
0.0266402374038712
 21
-0.1107193079929352
 31
0.0
100
AcDbAttribute
  2
DATE
 70
     0
 74
     2
  0
SEQEND
  5
B35
330
B2C
100
AcDbEntity
 67
     1
  8
0
  0
INSERT
  5
1DEF
330
1B
100
AcDbEntity
 67
     1
  8
0
100
AcDbBlockReference
  2
OEM-NOTES
 10
0.0
 20
0.0
 30
0.0
 41
0.5
 42
0.5
 43
0.5
  0
ENDSEC
  0
SECTION
  2
OBJECTS
  0
DICTIONARY
  5
C
330
0
100
AcDbDictionary
  3
ACAD_GROUP
350
D
  3
ACAD_LAYOUT
350
1A
  3
ACAD_MLINESTYLE
350
17
  3
ACAD_PLOTSETTINGS
350
19
  3
ACAD_PLOTSTYLENAME
350
E
  3
ACADDIM
350
7A6E
  3
ACDBVARIABLEDICTIONARY
350
374
  3
ACMDICTIONARY
350
383
  3
AMG
350
36B
  3
AMGSNAPSETTINGS
350
399
  3
ASE_INDEX_DICTIONARY
350
6A
  3
DWGPROPS
350
2DA4
  3
ACDBHEADERROUNDTRIPXREC
350
9596
  0
DICTIONARY
  5
73
330
1F
100
AcDbDictionary
280
     1
  3
ACAD_INDEX
360
3D25
  3
ACAD_LAYOUTSELFREF
360
95B8
  0
DICTIONARY
  5
75
330
1B
100
AcDbDictionary
280
     1
  3
ACAD_LAYOUTSELFREF
360
95B7
  0
DICTIONARY
  5
D
102
{ACAD_REACTORS
330
C
102
}
330
C
100
AcDbDictionary
  0
DICTIONARY
  5
1A
102
{ACAD_REACTORS
330
C
102
}
330
C
100
AcDbDictionary
  0
DICTIONARY
  5
17
102
{ACAD_REACTORS
330
C
102
}
330
C
100
AcDbDictionary
  3
STANDARD
350
18
  0
DICTIONARY
  5
19
102
{ACAD_REACTORS
330
C
102
}
330
C
100
AcDbDictionary
  3
A_SIZE_PAPER
350
2FF
  3
B_SIZE_PAPER
350
2FD
  3
D_SIZE_PAPER
350
2FE
  0
ACDBDICTIONARYWDFLT
  5
E
102
{ACAD_REACTORS
330
C
102
}
330
C
100
AcDbDictionary
281
     1
  3
Normal
350
F
100
AcDbDictionaryWithDefault
340
F
  0
XRECORD
  5
7A6E
102
{ACAD_REACTORS
330
C
102
}
330
C
100
AcDbXrecord
 90
   990106
  3

 60
     0
 61
     0
 62
     1
 63
     3
 64
     0
 65
     0
 66
     0
 67
     3
 68
     1
 69
     0
 70
     0
 71
     0
 72
     0
 40
0.0
170
     0
340
0
  0
DICTIONARY
  5
374
102
{ACAD_REACTORS
330
C
102
}
330
C
100
AcDbDictionary
  3
INDEXCTL
350
375
  3
SORTENTS
350
7997
  0
DICTIONARY
  5
383
102
{ACAD_REACTORS
330
C
102
}
330
C
100
AcDbDictionary
  0
DICTIONARY
  5
36B
102
{ACAD_REACTORS
330
C
102
}
330
C
100
AcDbDictionary
  3
ACMGSETTINGS
350
36C
  0
DICTIONARY
  5
399
102
{ACAD_REACTORS
330
C
102
}
330
C
100
AcDbDictionary
  0
DICTIONARY
  5
6A
102
{ACAD_REACTORS
330
C
102
}
330
C
100
AcDbDictionary
  3
ASEBLOCKHIERARCHYINDEXRECORD
350
6C
1001
DCO15
1040
1379130883.246999
  0
XRECORD
  5
2DA4
102
{ACAD_REACTORS
330
C
102
}
330
C
100
AcDbXrecord
  1
DWGPROPS COOKIE
  2

  3

  4

  6

  7

  8
mgp706
  9

300
AmdtFileType=84
301
=
302
=
303
=
304
=
305
=
306
=
307
=
308
=
309
=
 40
0.2586275694444444
 41
2451764.535041909
 42
2451880.62758956
  1

 90
        1
  0
DICTIONARY
  5
9596
102
{ACAD_REACTORS
330
C
102
}
330
C
100
AcDbDictionary
  3
TSTACKALIGN
350
9597
  3
TSTACKSIZE
350
9598
  3
HYPERLINKBASE
350
9599
  3
STYLESHEET
350
959A
  3
LAYOUTDICT
350
959B
  3
PLOTSETDICT
350
959C
  3
PLOTSTYLNAMDICT
350
959D
  3
LWETCUNION
350
959E
  3
INSUNITS
350
959F
  3
CEPSNTYPE
350
95A0
  3
FINGERPRINTGUID
350
95A1
  3
VERSIONGUID
350
95A2
  3
PSVPSCALE
350
95A3
  3
DIMSTYLEDATA
350
95A4
  3
PUCSORTHOREF
350
95A5
  3
PUCSORTHOVIEW
350
95A6
  3
PUCSBASE
350
95A7
  3
PUCSORGTOP
350
95A8
  3
PUCSORGBOTTOM
350
95A9
  3
PUCSORGLEFT
350
95AA
  3
PUCSORGRIGHT
350
95AB
  3
PUCSORGFRONT
350
95AC
  3
PUCSORGBACK
350
95AD
  3
UCSORTHOREF
350
95AE
  3
UCSORTHOVIEW
350
95AF
  3
UCSBASE
350
95B0
  3
UCSORGTOP
350
95B1
  3
UCSORGBOTTOM
350
95B2
  3
UCSORGLEFT
350
95B3
  3
UCSORGRIGHT
350
95B4
  3
UCSORGFRONT
350
95B5
  3
UCSORGBACK
350
95B6
  0
DICTIONARY
  5
3D25
102
{ACAD_REACTORS
330
73
102
}
330
73
100
AcDbDictionary
  3
*A1
350
3D26
  0
XRECORD
  5
95B8
102
{ACAD_REACTORS
330
73
102
}
330
73
100
AcDbXrecord
340
1F
  0
XRECORD
  5
95B7
102
{ACAD_REACTORS
330
75
102
}
330
75
100
AcDbXrecord
340
1B
  0
MLINESTYLE
  5
18
102
{ACAD_REACTORS
330
17
102
}
330
17
100
AcDbMlineStyle
  2
STANDARD
 70
     0
  3

 62
   256
 51
90.0
 52
90.0
 71
     2
 49
0.5
 62
   256
  6
BYLAYER
 49
-0.5
 62
   256
  6
BYLAYER
  0
PLOTSETTINGS
  5
2FF
102
{ACAD_REACTORS
330
19
102
}
330
19
100
AcDbPlotSettings
  1
A Size Paper
  2
none_device
  4
ANSI_A_(8.50_x_11.00_Inches)
  6

 40
6.349999904632568
 41
19.04999923706054
 42
6.350006103515625
 43
19.04998779296875
 44
215.8999938964843
 45
279.3999938964843
 46
19.04999999999999
 47
-9.651999999999999
 48
0.0
 49
0.0
140
0.0
141
0.0
142
1.0
143
1.6
 70
   740
 72
     0
 73
     1
 74
     1
  7
monochrome.ctb
 75
     0
147
0.625
148
0.0034886547032954
149
0.0199946439100934
  0
PLOTSETTINGS
  5
2FD
102
{ACAD_REACTORS
330
19
102
}
330
19
100
AcDbPlotSettings
  1
B Size Paper
  2
none_device
  4
ANSI_B_(11.00_x_17.00_Inches)
  6

 40
6.349999904632568
 41
19.04999923706054
 42
6.350006103515625
 43
19.04998779296875
 44
279.3999938964843
 45
431.7999877929687
 46
1.27
 47
-11.43
 48
0.0
 49
0.0
140
0.0
141
0.0
142
1.0
143
1.0
 70
   756
 72
     0
 73
     1
 74
     1
  7
monochrome.ctb
 75
    16
147
1.0
148
0.0034886547032954
149
0.0199946439100934
  0
PLOTSETTINGS
  5
2FE
102
{ACAD_REACTORS
330
19
102
}
330
19
100
AcDbPlotSettings
  1
D Size Paper
  2
none_device
  4
ANSI_D_(22.00_x_34.00_Inches)
  6

 40
6.349999904632568
 41
19.04999923706054
 42
6.3499755859375
 43
19.04998779296875
 44
558.7999877929687
 45
863.5999755859375
 46
8.889999999999998
 47
-3.809999999999999
 48
0.0
 49
0.0
140
0.0
141
0.0
142
1.0
143
0.5
 70
   740
 72
     0
 73
     1
 74
     1
  7
monochrome.ctb
 75
     0
147
2.0
148
0.0034886547032954
149
0.0199946439100934
  0
ACDBPLACEHOLDER
  5
F
102
{ACAD_REACTORS
330
E
102
}
330
E
100
AcDbPlaceHolder
280
     0
  0
DICTIONARYVAR
  5
375
102
{ACAD_REACTORS
330
374
102
}
330
374
100
DictionaryVariables
280
     0
  1
1
  0
DICTIONARYVAR
  5
7997
102
{ACAD_REACTORS
330
374
102
}
330
374
100
DictionaryVariables
280
     0
  1
96
  0
DICTIONARY
  5
36C
102
{ACAD_REACTORS
330
36B
102
}
330
36B
100
AcDbDictionary
  3
DWGSETTINGS
350
2D90
  0
XRECORD
  5
6C
102
{ACAD_REACTORS
330
6A
102
}
330
6A
100
AcDbXrecord
  0
XRECORD
  5
9597
102
{ACAD_REACTORS
330
9596
102
}
330
9596
100
AcDbXrecord
 90
        1
  0
XRECORD
  5
9598
102
{ACAD_REACTORS
330
9596
102
}
330
9596
100
AcDbXrecord
 90
       70
  0
XRECORD
  5
9599
102
{ACAD_REACTORS
330
9596
102
}
330
9596
100
AcDbXrecord
  1

  0
XRECORD
  5
959A
102
{ACAD_REACTORS
330
9596
102
}
330
9596
100
AcDbXrecord
  1

  0
XRECORD
  5
959B
102
{ACAD_REACTORS
330
9596
102
}
330
9596
100
AcDbXrecord
340
1A
  0
XRECORD
  5
959C
102
{ACAD_REACTORS
330
9596
102
}
330
9596
100
AcDbXrecord
340
19
  0
XRECORD
  5
959D
102
{ACAD_REACTORS
330
9596
102
}
330
9596
100
AcDbXrecord
340
E
  0
XRECORD
  5
959E
102
{ACAD_REACTORS
330
9596
102
}
330
9596
100
AcDbXrecord
 90
    10269
  0
XRECORD
  5
959F
102
{ACAD_REACTORS
330
9596
102
}
330
9596
100
AcDbXrecord
 90
        1
  0
XRECORD
  5
95A0
102
{ACAD_REACTORS
330
9596
102
}
330
9596
100
AcDbXrecord
 90
        0
  0
XRECORD
  5
95A1
102
{ACAD_REACTORS
330
9596
102
}
330
9596
100
AcDbXrecord
  1
{4E694E3A-6C64-11D4-81E3-0004AC4461C9}
  0
XRECORD
  5
95A2
102
{ACAD_REACTORS
330
9596
102
}
330
9596
100
AcDbXrecord
  1
{695246F1-49F9-11D5-B1E9-00062962DB88}
  0
XRECORD
  5
95A3
102
{ACAD_REACTORS
330
9596
102
}
330
9596
100
AcDbXrecord
 40
0.5
  0
XRECORD
  5
95A4
102
{ACAD_REACTORS
330
9596
102
}
330
9596
100
AcDbXrecord
1000
DSTYLE
1002
{
1070
    79
 70
     1
1070
   148
 40
0.1
1070
   341
340
2FD7
1070
   342
340
2FD7
1070
   371
 70
    -1
1070
   372
 70
    -1
1002
}
  0
XRECORD
  5
95A5
102
{ACAD_REACTORS
330
9596
102
}
330
9596
100
AcDbXrecord
340
0
  0
XRECORD
  5
95A6
102
{ACAD_REACTORS
330
9596
102
}
330
9596
100
AcDbXrecord
 70
     0
  0
XRECORD
  5
95A7
102
{ACAD_REACTORS
330
9596
102
}
330
9596
100
AcDbXrecord
340
0
  0
XRECORD
  5
95A8
102
{ACAD_REACTORS
330
9596
102
}
330
9596
100
AcDbXrecord
 10
0.0
 20
0.0
 30
0.0
  0
XRECORD
  5
95A9
102
{ACAD_REACTORS
330
9596
102
}
330
9596
100
AcDbXrecord
 10
0.0
 20
0.0
 30
0.0
  0
XRECORD
  5
95AA
102
{ACAD_REACTORS
330
9596
102
}
330
9596
100
AcDbXrecord
 10
0.0
 20
0.0
 30
0.0
  0
XRECORD
  5
95AB
102
{ACAD_REACTORS
330
9596
102
}
330
9596
100
AcDbXrecord
 10
0.0
 20
0.0
 30
0.0
  0
XRECORD
  5
95AC
102
{ACAD_REACTORS
330
9596
102
}
330
9596
100
AcDbXrecord
 10
0.0
 20
0.0
 30
0.0
  0
XRECORD
  5
95AD
102
{ACAD_REACTORS
330
9596
102
}
330
9596
100
AcDbXrecord
 10
0.0
 20
0.0
 30
0.0
  0
XRECORD
  5
95AE
102
{ACAD_REACTORS
330
9596
102
}
330
9596
100
AcDbXrecord
340
0
  0
XRECORD
  5
95AF
102
{ACAD_REACTORS
330
9596
102
}
330
9596
100
AcDbXrecord
 70
     0
  0
XRECORD
  5
95B0
102
{ACAD_REACTORS
330
9596
102
}
330
9596
100
AcDbXrecord
340
0
  0
XRECORD
  5
95B1
102
{ACAD_REACTORS
330
9596
102
}
330
9596
100
AcDbXrecord
 10
0.0
 20
0.0
 30
0.0
  0
XRECORD
  5
95B2
102
{ACAD_REACTORS
330
9596
102
}
330
9596
100
AcDbXrecord
 10
0.0
 20
0.0
 30
0.0
  0
XRECORD
  5
95B3
102
{ACAD_REACTORS
330
9596
102
}
330
9596
100
AcDbXrecord
 10
0.0
 20
0.0
 30
0.0
  0
XRECORD
  5
95B4
102
{ACAD_REACTORS
330
9596
102
}
330
9596
100
AcDbXrecord
 10
0.0
 20
0.0
 30
0.0
  0
XRECORD
  5
95B5
102
{ACAD_REACTORS
330
9596
102
}
330
9596
100
AcDbXrecord
 10
0.0
 20
0.0
 30
0.0
  0
XRECORD
  5
95B6
102
{ACAD_REACTORS
330
9596
102
}
330
9596
100
AcDbXrecord
 10
0.0
 20
0.0
 30
0.0
  0
LAYER_INDEX
  5
3D26
102
{ACAD_REACTORS
330
3D25
102
}
330
3D25
100
AcDbIndex
 40
2452062.400232638
100
AcDbLayerIndex
  8
0
360
3D27
 90
       13
  8
BLOCKS
360
3D28
 90
        0
  8
CENTER1
360
3D29
 90
       11
  8
CENTER2
360
3D2A
 90
        0
  8
CENTER3
360
3D2B
 90
        0
  8
CONSTRUCTION
360
3D2C
 90
        0
  8
CONTINUOUS1
360
3D2D
 90
      369
  8
CONTINUOUS2
360
3D2E
 90
        0
  8
CONTINUOUS3
360
3D2F
 90
        0
  8
DASHDOT1
360
3D30
 90
        0
  8
DASHDOT2
360
3D31
 90
        0
  8
DASHDOT3
360
3D32
 90
        0
  8
DIM
360
3D33
 90
       30
  8
HIDDEN1
360
3D34
 90
       13
  8
HIDDEN2
360
3D35
 90
        0
  8
HIDDEN3
360
3D36
 90
        0
  8
PHANTOM1
360
3D37
 90
        0
  8
PHANTOM2
360
3D38
 90
        0
  8
PHANTOM3
360
3D39
 90
        0
  8
TEXT1
360
3D3A
 90
      142
  8
TEXT2
360
3D3B
 90
        4
  8
TEXT3
360
3D3C
 90
        0
  8
TITLEBLOCK
360
3D3D
 90
        0
  8
VIEWPORT
360
3D3E
 90
        2
  8
Defpoints
360
3D3F
 90
        0
  0
XRECORD
  5
2D90
102
{ACAD_REACTORS
330
36C
102
}
330
36C
100
AcDbXrecord
  1
VERSION
140
15.0
  1
PRODUCT
  2
AutoCAD Mechanical 2000
  0
IDBUFFER
  5
3D27
330
0
100
AcDbIdBuffer
330
79E
330
2517
330
2C37
330
7DF4
330
7DF8
330
85EA
330
85EB
330
8BCB
330
8BCC
330
8BDE
330
8BDF
330
8FCA
330
8FCB
  0
IDBUFFER
  5
3D28
330
0
100
AcDbIdBuffer
  0
IDBUFFER
  5
3D29
330
0
100
AcDbIdBuffer
330
858B
330
85B4
330
85CA
330
85CB
330
8949
330
8B9E
330
8BBD
330
8BBE
330
8BC3
330
8BCF
330
8FCE
  0
IDBUFFER
  5
3D2A
330
0
100
AcDbIdBuffer
  0
IDBUFFER
  5
3D2B
330
0
100
AcDbIdBuffer
  0
IDBUFFER
  5
3D2C
330
0
100
AcDbIdBuffer
  0
IDBUFFER
  5
3D2D
330
0
100
AcDbIdBuffer
330
783D
330
783E
330
783F
330
7840
330
7841
330
7842
330
7843
330
7844
330
7DF3
330
7F6A
330
7F6B
330
7F6C
330
7F6D
330
7F6E
330
7F6F
330
7F70
330
7F71
330
80F8
330
80F9
330
8100
330
8104
330
8105
330
8108
330
8113
330
8123
330
8124
330
8125
330
8126
330
8127
330
8128
330
8129
330
812A
330
812C
330
812E
330
8131
330
8132
330
8146
330
8153
330
8154
330
82CD
330
82CE
330
82D0
330
82D1
330
82D2
330
8591
330
8597
330
8598
330
85A6
330
85A8
330
85A9
330
85AA
330
85AB
330
85AC
330
85AD
330
85AE
330
85AF
330
85B0
330
85B1
330
85B8
330
85B9
330
85BD
330
85BE
330
85BF
330
85C4
330
85C5
330
85C6
330
85C7
330
85C8
330
85CC
330
85CD
330
85D4
330
85D5
330
85E6
330
85E7
330
85E8
330
85E9
330
85EC
330
864C
330
864D
330
88AA
330
88AB
330
88AC
330
88AD
330
88AE
330
88AF
330
88B0
330
88B1
330
88B2
330
88B3
330
88B4
330
88B5
330
88B6
330
88B7
330
88B8
330
88B9
330
88BA
330
88BB
330
88BC
330
88BD
330
88BE
330
88BF
330
88C0
330
88C2
330
88C3
330
88C4
330
88C5
330
88CA
330
88CE
330
88D0
330
88D2
330
88D5
330
88D6
330
88D7
330
88D8
330
88D9
330
88DA
330
88DB
330
88DC
330
88DE
330
88DF
330
894B
330
894C
330
896F
330
8970
330
8B85
330
8B86
330
8B87
330
8B88
330
8B89
330
8B8A
330
8B8D
330
8B8F
330
8B90
330
8B91
330
8B93
330
8B94
330
8B95
330
8B96
330
8B97
330
8B98
330
8B99
330
8B9A
330
8B9B
330
8B9C
330
8B9D
330
8BA1
330
8BA2
330
8BA6
330
8BA7
330
8BA8
330
8BA9
330
8BAA
330
8BAB
330
8BAC
330
8BAD
330
8BAE
330
8BAF
330
8BB0
330
8BB1
330
8BB2
330
8BB3
330
8BB4
330
8BB5
330
8BB6
330
8BB7
330
8BB8
330
8BBA
330
8BBC
330
8BBF
330
8BC0
330
8BC1
330
8BC6
330
8BC7
330
8BC8
330
8BC9
330
8BCA
330
8BCD
330
8BCE
330
8BD0
330
8BD1
330
8BD2
330
8BD3
330
8BD4
330
8BD5
330
8BD6
330
8BD7
330
8BD8
330
8BD9
330
8BDA
330
8BDC
330
8BDD
330
8BE0
330
8BE1
330
8BE2
330
8BE3
330
8BE4
330
8BE6
330
8BE7
330
8BE8
330
8BE9
330
8BEA
330
8BEB
330
8BEC
330
8BED
330
8BEE
330
8BEF
330
8BF0
330
8BF1
330
8BF3
330
8BF4
330
8BF5
330
8BF6
330
8BF7
330
8BF8
330
8BF9
330
8BFA
330
8BFB
330
8BFC
330
8BFD
330
8BFE
330
8BFF
330
8C00
330
8C01
330
8C02
330
8C03
330
8C04
330
8C06
330
8C07
330
8C08
330
8C09
330
8C0A
330
8C0B
330
8C0C
330
8C0D
330
8C0E
330
8C0F
330
8C10
330
8C11
330
8C12
330
8C13
330
8C14
330
8C15
330
8C16
330
8C17
330
8E8C
330
8E8D
330
8E8E
330
8E8F
330
8E90
330
8E91
330
8E92
330
8E93
330
8E94
330
8E95
330
8E96
330
8E97
330
8E98
330
8E99
330
8E9A
330
8E9B
330
8E9C
330
8E9D
330
8E9E
330
8E9F
330
8EA0
330
8EA1
330
8EA2
330
8FB0
330
8FB1
330
8FB2
330
8FB3
330
8FB4
330
8FB7
330
8FB8
330
8FB9
330
8FC5
330
8FC6
330
8FC7
330
8FC9
330
900D
330
9053
330
905F
330
9060
330
9061
330
9062
330
9063
330
9064
330
9077
330
9078
330
9082
330
9084
330
9088
330
9089
330
908D
330
908F
330
9093
330
9096
330
9244
330
9245
330
9246
330
9247
330
9254
330
9256
330
9257
330
9259
330
92C9
330
92CA
330
92CB
330
92CC
330
92CF
330
92D0
330
92D1
330
92D2
330
92D3
330
92D4
330
92D8
330
92D9
330
92DA
330
92DB
330
92DC
330
92DD
330
92DE
330
92DF
330
92E2
330
92E5
330
92E6
330
92E7
330
92E8
330
92F3
330
92F4
330
92F5
330
92F6
330
92F7
330
92F8
330
92F9
330
92FA
330
9301
330
9303
330
9304
330
9305
330
9306
330
9307
330
9308
330
930A
330
930C
330
930D
330
9313
330
9315
330
9316
330
9318
330
9322
330
9323
330
9324
330
9325
330
9326
330
9327
330
9331
330
9332
330
9338
330
9339
330
933A
330
933B
330
933C
330
9345
330
9346
330
9347
330
9348
330
934A
330
934B
  0
IDBUFFER
  5
3D2E
330
0
100
AcDbIdBuffer
  0
IDBUFFER
  5
3D2F
330
0
100
AcDbIdBuffer
  0
IDBUFFER
  5
3D30
330
0
100
AcDbIdBuffer
  0
IDBUFFER
  5
3D31
330
0
100
AcDbIdBuffer
  0
IDBUFFER
  5
3D32
330
0
100
AcDbIdBuffer
  0
IDBUFFER
  5
3D33
330
0
100
AcDbIdBuffer
330
85ED
330
86B8
330
86DC
330
8762
330
8770
330
87BE
330
883A
330
884E
330
8971
330
897F
330
89B5
330
89DF
330
8A34
330
8B83
330
8B84
330
8B8B
330
8B8E
330
8B92
330
8BA5
330
8BB9
330
8BBB
330
8BC2
330
8BC4
330
8BC5
330
8BDB
330
8BE5
330
8BF2
330
8C05
330
8EA3
330
8EBB
  0
IDBUFFER
  5
3D34
330
0
100
AcDbIdBuffer
330
8135
330
8941
330
8942
330
8943
330
8946
330
8B9F
330
8BA0
330
8BA3
330
8BA4
330
8FCD
330
9086
330
92FF
330
9300
  0
IDBUFFER
  5
3D35
330
0
100
AcDbIdBuffer
  0
IDBUFFER
  5
3D36
330
0
100
AcDbIdBuffer
  0
IDBUFFER
  5
3D37
330
0
100
AcDbIdBuffer
  0
IDBUFFER
  5
3D38
330
0
100
AcDbIdBuffer
  0
IDBUFFER
  5
3D39
330
0
100
AcDbIdBuffer
  0
IDBUFFER
  5
3D3A
330
0
100
AcDbIdBuffer
330
7934
330
80F7
330
80FD
330
80FE
330
80FF
330
8101
330
8102
330
8103
330
8106
330
8122
330
812B
330
812D
330
812F
330
8130
330
8145
330
8147
330
814C
330
815C
330
82AC
330
82B9
330
82BD
330
82BE
330
82BF
330
82C0
330
82C1
330
8ABC
330
8ABE
330
8AC1
330
8D65
330
8D66
330
8D67
330
8D68
330
8D69
330
8D6A
330
8D6B
330
900E
330
900F
330
9011
330
9012
330
9052
330
9055
330
9056
330
9057
330
9059
330
905A
330
905B
330
905C
330
905D
330
905E
330
9065
330
9066
330
9067
330
9068
330
9069
330
906A
330
906C
330
9072
330
9073
330
9074
330
9075
330
9076
330
9083
330
9085
330
9087
330
908A
330
908E
330
9090
330
9094
330
9095
330
9248
330
9249
330
924B
330
924C
330
924D
330
924E
330
924F
330
9250
330
9251
330
9252
330
9253
330
92D5
330
92D6
330
92D7
330
92E0
330
92E1
330
92E3
330
92E9
330
92EA
330
92EB
330
92EC
330
92ED
330
92EE
330
92EF
330
92F0
330
92F1
330
92F2
330
92FB
330
92FC
330
92FD
330
92FE
330
9302
330
9309
330
930B
330
930E
330
930F
330
9310
330
9311
330
9312
330
9314
330
9317
330
9319
330
931A
330
931B
330
931C
330
931D
330
931E
330
931F
330
9320
330
9321
330
9328
330
9329
330
932A
330
932B
330
932C
330
932D
330
932E
330
932F
330
9330
330
9333
330
9334
330
9335
330
9336
330
9337
330
933D
330
933E
330
933F
330
9340
330
9341
330
9342
330
9343
330
9344
330
9349
  0
IDBUFFER
  5
3D3B
330
0
100
AcDbIdBuffer
330
8107
330
8D6C
330
8D6D
330
92E4
  0
IDBUFFER
  5
3D3C
330
0
100
AcDbIdBuffer
  0
IDBUFFER
  5
3D3D
330
0
100
AcDbIdBuffer
  0
IDBUFFER
  5
3D3E
330
0
100
AcDbIdBuffer
330
BF7
330
BF8
  0
IDBUFFER
  5
3D3F
330
0
100
AcDbIdBuffer
  0
ENDSEC
  0
EOF
